<?xml version="1.0" standalone="no"?>
<!DOCTYPE svg PUBLIC "-//W3C//DTD SVG 1.1//EN" "http://www.w3.org/Graphics/SVG/1.1/DTD/svg11.dtd" >
<svg xmlns="http://www.w3.org/2000/svg" xmlns:xlink="http://www.w3.org/1999/xlink" version="1.1">
<metadata>
Created by FontForge 20161003 at Wed Jul 17 03:11:04 2019
 By www-data
</metadata>
<defs>
<font id="RMPua" horiz-adv-x="556" >
  <font-face 
    font-family="RMPua"
    font-weight="400"
    font-stretch="normal"
    units-per-em="1000"
    panose-1="2 0 5 3 0 0 0 2 0 4"
    ascent="800"
    descent="-200"
    x-height="545"
    cap-height="758"
    bbox="-272 -241 1260 976"
    underline-thickness="101"
    underline-position="-205"
    unicode-range="U+0008-FB02"
  />
<missing-glyph horiz-adv-x="500" 
 />
    <glyph glyph-name=".notdef" horiz-adv-x="500" 
 />
    <glyph glyph-name=".null" horiz-adv-x="0" 
 />
    <glyph glyph-name="uni000D" horiz-adv-x="278" 
 />
    <glyph glyph-name="space" unicode=" " horiz-adv-x="333" 
 />
    <glyph glyph-name="uni0008" horiz-adv-x="0" 
 />
    <glyph glyph-name="uni0008" unicode="&#x2400;" horiz-adv-x="0" 
 />
    <glyph glyph-name="uni0008" horiz-adv-x="0" 
 />
    <glyph glyph-name="uni0009" unicode="&#x9;" horiz-adv-x="278" 
 />
    <glyph glyph-name="exclam" unicode="!" horiz-adv-x="303" 
d="M166 189h-29l-47 568l121 23zM151 -22q-26 0 -45 18.5t-19 45.5q0 26 19 45t45 19q27 0 46 -19t19 -45q0 -27 -19 -45.5t-46 -18.5z" />
    <glyph glyph-name="quotedbl" unicode="&#x22;" horiz-adv-x="500" 
d="M162 485h-32l-39 303h106zM373 485h-32l-36 303h104z" />
    <glyph glyph-name="numbersign" unicode="#" horiz-adv-x="667" 
d="M84 0l58 216h-129v45h141l59 224h-129v45h142l60 228h46l-61 -228h203l60 228h47l-61 -228h128v-45h-141l-60 -224h129v-45h-140l-58 -216h-46l56 216h-201l-57 -216h-46zM200 261h200l61 224h-202z" />
    <glyph glyph-name="dollar" unicode="$" horiz-adv-x="667" 
d="M375 -75h-38v75h-21q-92 0 -195 30l-11 167h38l1 -9q12 -67 45 -101q57 -57 129 -57h14v306l-55 35q-103 64 -135.5 101t-32.5 91q0 80 59 131.5t164 62.5v76h38v-76q99 0 186 -30l17 -147h-40l-2 8q-34 124 -161 139v-298l52 -32q95 -58 127.5 -97.5t32.5 -95.5
q0 -82 -55 -133t-157 -66v-80zM337 454v273q-57 -10 -91 -46.5t-34 -88.5q0 -60 101 -123zM375 312v-275q114 41 114 141q0 62 -90 118z" />
    <glyph glyph-name="percent" unicode="%" horiz-adv-x="883" 
d="M133 0l544 758h64l-542 -758h-66zM195 305q-76 0 -124 63.5t-48 163.5q0 101 48 164t124 63t124.5 -63t48.5 -164q0 -100 -48.5 -163.5t-124.5 -63.5zM195 335q43 0 68 53t25 144q0 92 -25 144.5t-68 52.5t-67.5 -52.5t-24.5 -144.5q0 -91 24.5 -144t67.5 -53zM688 0
q-77 0 -125 63.5t-48 163.5q0 101 48 164.5t125 63.5q76 0 124 -63.5t48 -164.5q0 -100 -48 -163.5t-124 -63.5zM688 30q43 0 68 53t25 144t-25 144t-68 53t-68 -52.5t-25 -144.5q0 -91 25 -144t68 -53z" />
    <glyph glyph-name="ampersand" unicode="&#x26;" horiz-adv-x="849" 
d="M495 70q-101 -92 -213 -92q-107 0 -175.5 63.5t-68.5 162.5q0 83 54.5 154t156.5 121q-37 88 -37 139q0 70 50 116t126 46q67 0 112.5 -36t45.5 -91q0 -108 -193 -174q82 -190 187 -315q70 98 70 155q0 28 -18 46t-46 18h-6l21 60h265l-30 -79h-109q-32 -118 -126 -220
q99 -106 156 -106q35 0 79 16v-27q-74 -49 -144 -49q-71 0 -157 92zM343 508q119 57 119 156q0 37 -21 61.5t-51 24.5q-34 0 -56.5 -30t-22.5 -72q0 -43 28 -129q1 -2 4 -11zM259 450q-122 -73 -122 -210q0 -89 56.5 -151.5t138.5 -62.5q70 0 143 65q-135 149 -216 359z" />
    <glyph glyph-name="quotesingle" unicode="'" horiz-adv-x="303" 
d="M170 485h-35l-52 303h137z" />
    <glyph glyph-name="parenleft" unicode="(" horiz-adv-x="447" 
d="M341 -145v-36q-102 56 -172 198.5t-70 293.5q0 150 70 293t172 199v-36q-144 -117 -144 -456q0 -338 144 -456z" />
    <glyph glyph-name="parenright" unicode=")" horiz-adv-x="447" 
d="M99 -145q144 118 144 456q0 339 -144 456v36q102 -56 172 -199t70 -293q0 -151 -70 -293.5t-172 -198.5v36z" />
    <glyph glyph-name="asterisk" unicode="*" horiz-adv-x="508" 
d="M254 538l-86 -172l-62 40l122 147l-190 35l21 73l179 -80l-22 199h76l-21 -199l178 80l21 -73l-190 -35l122 -147l-62 -40z" />
    <glyph glyph-name="plus" unicode="+" horiz-adv-x="667" 
d="M606 299v-53h-246v-246h-53v246h-246v53h246v246h53v-246h246z" />
    <glyph glyph-name="comma" unicode="," horiz-adv-x="303" 
d="M76 -181v33q76 48 82 152l-82 42q10 83 82 83q33 0 54 -25t21 -63q0 -127 -157 -222z" />
    <glyph glyph-name="hyphen" unicode="-" horiz-adv-x="379" 
d="M38 273v68h303v-68h-303z" />
    <glyph glyph-name="hyphen" unicode="&#xad;" horiz-adv-x="379" 
d="M38 273v68h303v-68h-303z" />
    <glyph glyph-name="period" unicode="." horiz-adv-x="303" 
d="M151 -22q-31 0 -53 21.5t-22 53.5q0 31 22 53.5t53 22.5q32 0 54 -22.5t22 -53.5q0 -32 -22 -53.5t-54 -21.5z" />
    <glyph glyph-name="slash" unicode="/" horiz-adv-x="583" 
d="M30 -22l460 802h63l-461 -802h-62z" />
    <glyph glyph-name="zero" unicode="0" horiz-adv-x="667" 
d="M333 -22q-130 0 -209 109.5t-79 291.5t79 291.5t209 109.5t209 -109.5t79 -291.5t-79 -291.5t-209 -109.5zM333 8q91 0 136.5 92.5t45.5 278.5q0 185 -45.5 278t-136.5 93q-90 0 -136 -93t-46 -278q0 -186 46 -278.5t136 -92.5z" />
    <glyph glyph-name="one" unicode="1" horiz-adv-x="667" 
d="M140 658v31l242 92v-676q0 -48 27.5 -61.5t121.5 -13.5h1h1h1v-30h-394v30q98 0 125 13.5t27 61.5v579z" />
    <glyph glyph-name="two" unicode="2" horiz-adv-x="667" 
d="M80 0v36q178 197 270.5 343.5t92.5 225.5q0 57 -36 90.5t-97 33.5q-95 0 -211 -97l4 64q101 84 220 84q99 0 159 -49t60 -131q0 -73 -57 -152t-305 -353h381v-95h-481z" />
    <glyph glyph-name="three" unicode="3" horiz-adv-x="667" 
d="M196 371l29 76h19q75 0 131.5 48t56.5 112q0 55 -40.5 93.5t-98.5 38.5q-81 0 -168 -62v47q96 56 198 56q90 0 144.5 -42.5t54.5 -112.5q0 -61 -44.5 -107.5t-135.5 -78.5q104 -18 159.5 -72.5t55.5 -138.5q0 -99 -81 -174.5t-186 -75.5q-140 0 -218 86l65 67
q70 -116 175 -116q68 0 111 48t43 125q0 92 -62 137.5t-187 45.5h-21z" />
    <glyph glyph-name="four" unicode="4" horiz-adv-x="667" 
d="M413 220h-371v79l432 481h29v-481h129v-79h-129v-220h-90v220zM413 299v367l-328 -367h328z" />
    <glyph glyph-name="five" unicode="5" horiz-adv-x="667" 
d="M135 432l51 335h356v-88h-322l-25 -164l16 1q67 0 144 -30t121 -73q81 -78 81 -186q0 -103 -81 -176t-195 -73q-122 0 -201 77l68 68q59 -112 164 -112q66 0 110 51.5t44 128.5q0 108 -87 174.5t-230 66.5h-14z" />
    <glyph glyph-name="six" unicode="6" horiz-adv-x="667" 
d="M523 734q-23 8 -49 8q-126 0 -205 -83q-45 -47 -73.5 -132t-28.5 -170q0 -24 5 -58q31 77 92 122t134 45q91 0 149.5 -64t58.5 -163q0 -110 -75.5 -185.5t-183.5 -75.5q-123 0 -201 101.5t-78 262.5q0 190 111.5 314t282.5 124q29 0 61 -5v-41zM367 11q69 0 110.5 55
t41.5 143t-44 142t-114 54q-75 0 -119.5 -51t-44.5 -139q0 -87 48.5 -145.5t121.5 -58.5z" />
    <glyph glyph-name="seven" unicode="7" horiz-adv-x="667" 
d="M198 0q50 243 310 667h-428v91h503v-29q-121 -195 -183.5 -358.5t-95.5 -370.5h-106z" />
    <glyph glyph-name="eight" unicode="8" horiz-adv-x="667" 
d="M252 415q-71 48 -99 87.5t-28 92.5q0 82 62 133.5t160 51.5q91 0 148.5 -45t57.5 -117q0 -53 -41 -103t-113 -84q117 -81 154.5 -127.5t37.5 -111.5q0 -88 -78.5 -151t-190.5 -63q-101 0 -168 57.5t-67 146.5q0 133 165 233zM370 449q100 56 100 146q0 64 -41.5 109.5
t-100.5 45.5q-52 0 -88 -35.5t-36 -86.5q0 -75 129 -156zM282 398q-104 -68 -104 -190q0 -79 54.5 -134t133.5 -55q57 0 97 41t40 99q0 54 -39.5 101.5t-138.5 110.5z" />
    <glyph glyph-name="nine" unicode="9" horiz-adv-x="667" 
d="M144 23q22 -8 49 -8q126 0 205 84q44 47 73 131.5t29 169.5q0 25 -5 58q-31 -76 -92 -121t-134 -45q-91 0 -149.5 63.5t-58.5 163.5q0 109 75 185t184 76q123 0 201 -101.5t78 -262.5q0 -190 -112 -314t-282 -124q-29 0 -61 5v40zM300 746q-69 0 -111 -54.5t-42 -143.5
q0 -87 44 -141.5t115 -54.5q75 0 119.5 51.5t44.5 138.5t-49 145.5t-121 58.5z" />
    <glyph glyph-name="colon" unicode=":" horiz-adv-x="303" 
d="M151 -22q-31 0 -53 21.5t-22 53.5q0 31 22 53.5t53 22.5q32 0 54 -22.5t22 -53.5q0 -32 -22 -53.5t-54 -21.5zM151 409q-31 0 -53 22.5t-22 53.5t22 53.5t53 22.5q32 0 54 -22.5t22 -53.5t-22 -53.5t-54 -22.5z" />
    <glyph glyph-name="semicolon" unicode=";" horiz-adv-x="303" 
d="M76 -181v33q76 48 82 152l-82 42q10 83 82 83q33 0 54 -25t21 -63q0 -127 -157 -222zM151 409q-31 0 -53 22.5t-22 53.5t22 53.5t53 22.5q32 0 54 -22.5t22 -53.5t-22 -53.5t-54 -22.5z" />
    <glyph glyph-name="semicolon" unicode="&#x37e;" horiz-adv-x="303" 
d="M76 -181v33q76 48 82 152l-82 42q10 83 82 83q33 0 54 -25t21 -63q0 -127 -157 -222zM151 409q-31 0 -53 22.5t-22 53.5t22 53.5t53 22.5q32 0 54 -22.5t22 -53.5t-22 -53.5t-54 -22.5z" />
    <glyph glyph-name="less" unicode="&#x3c;" horiz-adv-x="667" 
d="M606 545v-55l-431 -217l431 -212v-61l-545 273z" />
    <glyph glyph-name="equal" unicode="=" horiz-adv-x="667" 
d="M606 375v-53h-545v53h545zM606 224v-54h-545v54h545z" />
    <glyph glyph-name="greater" unicode="&#x3e;" horiz-adv-x="667" 
d="M61 0v56l431 217l-431 211v61l545 -272z" />
    <glyph glyph-name="question" unicode="?" horiz-adv-x="455" 
d="M231 193h-91v38q0 58 14 91t72 110l20 27q65 87 65 160q3 59 -31 87.5t-89 28.5q-63 0 -145 -53l-16 25q90 73 208 73q71 0 121 -38t50 -92q0 -65 -69 -140l-16 -18q-58 -64 -75.5 -111t-17.5 -140v-48zM122 42q0 26 18.5 45t45.5 19t45.5 -19t18.5 -45
q0 -27 -18.5 -45.5t-45.5 -18.5q-26 0 -45 18.5t-19 45.5z" />
    <glyph glyph-name="at" unicode="@" horiz-adv-x="833" 
d="M595 68v-46q-80 -44 -183 -44q-161 0 -265.5 113.5t-104.5 286.5q0 179 107 290.5t279 111.5q162 0 263 -97t101 -253q0 -96 -55.5 -160.5t-135.5 -64.5q-54 0 -85 24t-39 73q-29 -45 -63 -67.5t-71 -22.5q-55 0 -93 47.5t-38 115.5q0 97 61 158q57 58 187 58h93v-213
q0 -62 20 -93t61 -31q51 0 85.5 49t34.5 122q0 142 -89 230t-233 88q-185 0 -274 -124q-75 -103 -75 -240q0 -156 93.5 -258t235.5 -102q92 0 183 49zM477 561h-27q-79 0 -118.5 -45t-39.5 -134q0 -60 20 -90.5t60 -30.5q23 0 49 22.5t56 67.5v210z" />
    <glyph glyph-name="A" unicode="A" horiz-adv-x="758" 
d="M194 239l-46 -113q-20 -48 -20 -61q0 -29 50 -34l8 -1v-30h-186v30h8q29 0 48 21t43 78l267 651h31l277 -651q26 -60 41 -79.5t36 -19.5h7v-30h-224v30h8q30 0 40.5 6t10.5 23q0 14 -24 70l-46 110h-329zM208 276h296l-151 358z" />
    <glyph glyph-name="B" unicode="B" horiz-adv-x="640" 
d="M396 417q91 -23 143 -80t52 -133q0 -94 -67.5 -149t-184.5 -55h-301v30h10q50 0 65.5 19t15.5 79v500q0 61 -15.5 80t-65.5 19h-10v31h269q98 0 135 -6t66 -25q56 -39 56 -109q0 -65 -42 -115.5t-126 -85.5zM228 727v-303h93q49 0 104 56q45 46 45 114q0 67 -46.5 100
t-140.5 33h-55zM228 394v-265q0 -99 131 -99q61 0 101 42.5t40 106.5q0 91 -73.5 153t-181.5 62h-17z" />
    <glyph glyph-name="C" unicode="C" horiz-adv-x="708" 
d="M642 16q-122 -38 -226 -38q-172 0 -273 108.5t-101 293.5q0 181 100.5 290.5t265.5 109.5q123 0 227 -30l15 -151h-37l-1 8q-12 68 -64 105.5t-135 37.5q-114 0 -188 -104t-74 -266q0 -167 75.5 -270t197.5 -103q165 0 192 148l1 8h38z" />
    <glyph glyph-name="D" unicode="D" horiz-adv-x="811" 
d="M42 0v30h9q50 0 65.5 19t15.5 79v500q0 61 -15.5 80t-65.5 19h-9v31h281q145 -3 204.5 -18.5t127.5 -62.5q114 -88 114 -268q0 -173 -103 -296q-55 -64 -128.5 -88.5t-214.5 -24.5h-281zM231 727v-599q0 -94 163 -94q121 0 193 92t72 247q0 151 -87 251q-51 59 -113.5 81
t-175.5 22h-52z" />
    <glyph glyph-name="E" unicode="E" horiz-adv-x="606" 
d="M228 383v-258q0 -48 41 -67.5t145 -19.5h21q45 0 66.5 23t31.5 81l1 9h38l-15 -164q-93 7 -139 7q-48 0 -113 4q-64 2 -77 2h-190v30h9q49 0 65.5 20t16.5 79v498q0 63 -15.5 81.5t-66.5 18.5h-9v31h500l15 -141h-38l-1 10q-10 64 -37.5 78.5t-143.5 14.5h-105v-307h113
q78 0 99.5 13.5t21.5 61.5v8h38v-197h-38v8q0 43 -18 61q-14 15 -103 15h-113z" />
    <glyph glyph-name="F" unicode="F" horiz-adv-x="587" 
d="M228 367v-238q0 -64 18 -81.5t84 -17.5h7v-30h-299v30h9q51 0 66.5 19t15.5 80v498q0 63 -15.5 81.5t-66.5 18.5h-9v31h500l15 -141h-38l-1 10q-10 64 -37.5 78.5t-143.5 14.5h-105v-322h115q76 0 97.5 13.5t21.5 61.5v8h38v-197h-38v8q0 42 -18 61q-13 14 -101 14h-115z
" />
    <glyph glyph-name="G" unicode="G" horiz-adv-x="773" 
d="M651 20q-123 -42 -231 -42q-198 0 -295 128q-83 113 -83 273q0 181 99.5 291t263.5 110q129 0 232 -30l14 -151h-38l-1 8q-1 36 -34 82q-57 61 -165 61q-118 0 -191 -103.5t-73 -272.5q0 -167 81 -257.5t231 -90.5q38 0 100 10v173q0 60 -16 79t-66 19h-9v30h272v-30h-7
q-51 0 -67.5 -19t-16.5 -79v-189z" />
    <glyph glyph-name="H" unicode="H" horiz-adv-x="799" 
d="M228 379v-250q0 -61 16 -80t67 -19h7v-30h-280v30h8q51 0 67 19t16 80v500q0 60 -16 79t-67 19h-8v31h280v-31h-7q-51 0 -67 -19t-16 -79v-212h344v212q0 60 -16 79t-67 19h-8v31h281v-31h-8q-51 0 -67 -19t-16 -79v-500q0 -61 16 -80t67 -19h8v-30h-281v30h8q51 0 67 19
t16 80v250h-344z" />
    <glyph glyph-name="I" unicode="I" horiz-adv-x="356" 
d="M318 0h-280v30h8q51 0 67 19t16 80v500q0 60 -16 79t-67 19h-8v31h280v-31h-7q-51 0 -67 -19t-16 -79v-500q0 -61 16 -80t67 -19h7v-30z" />
    <glyph glyph-name="J" unicode="J" horiz-adv-x="462" 
d="M0 -148v126h38l2 -7l4 -39q5 -33 27 -53q29 -26 71 -26q53 0 76.5 46t23.5 150v580q0 60 -16 79t-67 19h-8v31h281v-31h-8q-51 0 -67 -19t-16 -79v-534q0 -99 -9.5 -143.5t-39.5 -76.5q-50 -56 -147 -56q-86 0 -145 33z" />
    <glyph glyph-name="K" unicode="K" horiz-adv-x="735" 
d="M228 380v-251q0 -61 15.5 -80t67.5 -19h7v-30h-280v30h9q51 0 66.5 19t15.5 80v500q0 60 -15.5 79t-66.5 19h-9v31h280v-31h-7q-52 0 -67.5 -19t-15.5 -79v-231l226 231q58 59 58 75q0 23 -43 23h-7v31h201v-31h-8q-50 0 -145 -98l-200 -203l278 -298q54 -57 83 -77.5
t56 -20.5h8v-30h-154z" />
    <glyph glyph-name="L" unicode="L" horiz-adv-x="583" 
d="M534 170h38l-17 -179q-168 9 -327 9h-190v30h9q51 0 66.5 19t15.5 81v499q0 60 -16 79t-66 19h-9v31h280v-31h-8q-51 0 -66.5 -19t-15.5 -79v-499q0 -49 35.5 -67t135.5 -18h24q60 0 77 24q25 35 33 90z" />
    <glyph glyph-name="M" unicode="M" horiz-adv-x="974" 
d="M178 629v-500q0 -61 16 -80t68 -19h7v-30h-231v30h7q52 0 68 19t16 80v500q0 60 -16 79t-68 19h-7v31h176l282 -545l258 545h182v-31h-8q-51 0 -67 -19t-16 -79v-481q0 -80 16 -99t67 -19h8v-30h-273v30h6q52 0 68.5 19t16.5 80v550l-289 -605z" />
    <glyph glyph-name="N" unicode="N" horiz-adv-x="803" 
d="M197 588v-459q0 -61 16 -80t66 -19h9v-30h-235v30h6q50 0 65.5 19t15.5 80v521l-15 20q-42 57 -78 57h-9v31h145l454 -557v428q0 60 -16 79t-67 19h-8v31h234v-31h-9q-50 0 -66 -19t-16 -79v-651z" />
    <glyph glyph-name="O" unicode="O" horiz-adv-x="803" 
d="M401 -22q-158 0 -258.5 112.5t-100.5 288.5t100.5 288.5t258.5 112.5q143 0 234 -86q58 -54 92 -139t34 -176q0 -176 -100.5 -288.5t-259.5 -112.5zM401 8q108 0 177 104t69 267q0 162 -69 266.5t-177 104.5q-107 0 -176.5 -104.5t-69.5 -266.5q0 -163 69 -267t177 -104z
" />
    <glyph glyph-name="P" unicode="P" horiz-adv-x="606" 
d="M228 314v-185q0 -63 14.5 -81t68.5 -18h22v-30h-295v30h8q51 0 67 19t16 80v500q0 60 -16 79t-67 19h-8v31h286q90 0 129.5 -9t68.5 -35q58 -51 58 -143q0 -118 -84.5 -187.5t-228.5 -69.5h-39zM228 345h28q109 0 163.5 53t54.5 159q0 92 -44.5 131t-151.5 39h-50v-382z
" />
    <glyph glyph-name="Q" unicode="Q" horiz-adv-x="803" 
d="M400 -22q-143 14 -212 67q-66 53 -106 144t-40 190q0 176 100.5 288.5t258.5 112.5q159 0 259.5 -112.5t100.5 -289.5q0 -159 -86 -268.5t-226 -127.5q99 -44 191 -65.5t177 -21.5q83 0 179 29v-29q-96 -76 -216 -76q-83 0 -193 46t-187 113zM401 8q108 0 177 104t69 267
q0 162 -69 266.5t-177 104.5q-107 0 -176.5 -104.5t-69.5 -266.5q0 -163 69.5 -267t176.5 -104z" />
    <glyph glyph-name="R" unicode="R" horiz-adv-x="693" 
d="M228 360v-231q0 -61 15.5 -80t66.5 -19h4v-30h-276v30h7q52 0 68 19t16 80v500q0 60 -16 79t-68 19h-7v31h287q135 0 191 -35t56 -119q0 -79 -44.5 -134.5t-134.5 -87.5q32 -20 50.5 -42.5t68.5 -100.5l50 -80q51 -81 73.5 -105t48.5 -24h5v-30h-146l-218 360h-97z
M228 390h109q63 19 98 70t35 123q0 76 -47.5 110t-152.5 34h-42v-337z" />
    <glyph glyph-name="S" unicode="S" horiz-adv-x="572" 
d="M52 8l-10 166h38l1 -7q15 -77 61 -118t118 -41q64 0 110.5 43.5t46.5 105.5q0 77 -119 158l-75 52q-110 75 -144 117t-34 101q0 88 71.5 141.5t187.5 53.5q91 0 185 -32l16 -142h-39l-3 8q-39 136 -178 136q-63 0 -104 -37.5t-41 -95.5q0 -73 102 -142l108 -75
q102 -69 133.5 -110.5t31.5 -103.5q0 -96 -73 -152t-196 -56q-102 0 -194 30z" />
    <glyph glyph-name="T" unicode="T" horiz-adv-x="705" 
d="M301 720h-77q-87 0 -120 -23.5t-43 -92.5l-2 -9h-40l19 176q126 -13 263 -13h102q138 0 264 13l19 -176h-40l-2 9q-10 69 -43.5 92.5t-120.5 23.5h-77v-592q0 -61 19 -79.5t80 -18.5h7v-30h-314v30h8q61 0 79.5 18.5t18.5 79.5v592z" />
    <glyph glyph-name="U" unicode="U" horiz-adv-x="780" 
d="M26 727v31h280v-31h-8q-51 0 -67 -19t-16 -79v-340q0 -157 55 -219q54 -62 149 -62q86 0 134 59.5t49 197.5v364q0 60 -16 79t-67 19h-8v31h242v-31h-6q-52 0 -68 -19t-16 -79v-324q0 -118 -13.5 -168t-57.5 -91q-72 -68 -210 -68q-117 0 -186 54q-48 37 -63.5 89
t-15.5 168v340q0 60 -16.5 79t-67.5 19h-7z" />
    <glyph glyph-name="V" unicode="V" horiz-adv-x="758" 
d="M404 125l206 506q20 49 20 61q0 30 -50 35h-9v31h187v-31h-8q-29 0 -48 -20.5t-43 -78.5l-268 -650h-30l-278 650q-41 99 -77 99h-6v31h224v-31h-9q-29 0 -39.5 -6t-10.5 -23q0 -15 23 -70z" />
    <glyph glyph-name="W" unicode="W" horiz-adv-x="1030" 
d="M502 594l-190 -616h-33l-194 648q-16 55 -34 78t-44 23h-7v31h242v-31h-9q-35 0 -47 -9t-12 -36q0 -25 10 -58l141 -475l187 609h31l218 -612l139 477q12 41 12 66q0 33 -58 38h-9v31h185v-31h-8q-25 0 -41 -22t-33 -80l-190 -647h-32z" />
    <glyph glyph-name="X" unicode="X" horiz-adv-x="651" 
d="M304 339l-132 -210q-36 -58 -36 -74q0 -25 56 -25h9v-30h-201v30h7q31 0 56 21.5t61 77.5l157 247l-158 254q-60 97 -96 97h-8v31h254v-31h-11q-50 0 -50 -30q0 -23 27 -68l97 -164l100 164q42 72 42 81q0 17 -36 17h-6v31h163v-31h-11q-42 0 -103 -98l-127 -202
l181 -299q59 -98 104 -98h8v-30h-242v30h7q46 0 46 26q0 18 -31 70z" />
    <glyph glyph-name="Y" unicode="Y" horiz-adv-x="644" 
d="M276 355l-161 275q-57 97 -108 97h-7v31h242v-31h-10q-35 0 -35 -24q0 -23 29 -73l132 -231l127 233q27 50 27 66q0 26 -40 29h-11v31h183v-31h-11q-36 0 -54 -16.5t-54 -81.5l-150 -274v-226q0 -62 18.5 -80.5t79.5 -18.5h7v-30h-309v30h8q60 0 78.5 18.5t18.5 80.5v226
z" />
    <glyph glyph-name="Z" unicode="Z" horiz-adv-x="599" 
d="M42 0v30l385 697h-101q-133 0 -175 -18q-24 -10 -32 -26t-15 -66l-2 -11h-38v166l425 -14h49v-31l-384 -697h134q161 0 188 29q23 25 38 100l1 8h38l-11 -180q-216 13 -408 13h-92z" />
    <glyph glyph-name="bracketleft" unicode="[" horiz-adv-x="409" 
d="M371 -143v-38h-242v984h242v-38h-166v-908h166z" />
    <glyph glyph-name="backslash" unicode="\" horiz-adv-x="583" 
d="M553 -22h-62l-461 802h63z" />
    <glyph glyph-name="bracketright" unicode="]" horiz-adv-x="409" 
d="M38 765v38h242v-984h-242v38h167v908h-167z" />
    <glyph glyph-name="asciicircum" unicode="^" horiz-adv-x="667" 
d="M606 212h-59l-214 425l-212 -425h-60l272 546z" />
    <glyph glyph-name="underscore" unicode="_" horiz-adv-x="667" 
d="M30 -60v60h606v-60h-606z" />
    <glyph glyph-name="grave" unicode="`" horiz-adv-x="636" 
d="M424 629h-42l-208 159h107z" />
    <glyph glyph-name="a" unicode="a" horiz-adv-x="591" 
d="M378 96q-43 -55 -91 -82.5t-101 -27.5q-54 0 -89.5 36t-35.5 91q0 61 56.5 103.5t186.5 79.5l67 20v77q0 50 -6 69.5t-25 33.5q-30 22 -73 22q-45 0 -67.5 -19t-22.5 -58v-24l-105 -34v15q0 59 68 111q67 52 166 52q83 0 119 -34q37 -34 37 -110v-232q0 -88 16 -118
q15 -29 62 -29q14 0 32 3v-29q-48 -26 -95 -26q-41 0 -66 27.5t-33 82.5zM371 284l-28 -9q-113 -36 -148.5 -64.5t-35.5 -82.5q0 -35 24.5 -60.5t56.5 -25.5q55 0 101 51q30 33 30 93v98z" />
    <glyph glyph-name="b" unicode="b" horiz-adv-x="670" 
d="M99 -17v605q0 70 -9.5 89t-53.5 38l-28 12v8l181 67v-343q55 51 106.5 76.5t100.5 25.5q98 0 162 -76.5t64 -194.5q0 -135 -84 -219.5t-217 -84.5q-41 0 -82.5 7t-82.5 21zM189 417v-321q29 -35 72.5 -56.5t84.5 -21.5q77 0 127 66t50 168t-50.5 165.5t-129.5 63.5
q-36 0 -74.5 -16t-79.5 -48z" />
    <glyph glyph-name="c" unicode="c" horiz-adv-x="542" 
d="M503 68v-47q-94 -35 -184 -35q-124 0 -201.5 75.5t-77.5 197.5q0 132 84.5 217t215.5 85q104 0 183 -62l-69 -75q-64 102 -153 102q-71 0 -113 -64t-42 -171q0 -120 55 -187t153 -67q81 0 149 31z" />
    <glyph glyph-name="d" unicode="d" horiz-adv-x="693" 
d="M481 86q-55 -50 -106 -75t-100 -25q-98 0 -162 76t-64 193q0 136 84 221t219 85q30 0 62.5 -4.5t66.5 -12.5v98q0 30 -11 42.5t-54 30.5l-30 12v8l186 68v-676q0 -39 18 -53t69 -14h4v-29l-182 -47v102zM481 128v321q-28 35 -71.5 56.5t-84.5 21.5q-77 0 -127 -65.5
t-50 -168.5q0 -101 50 -165t130 -64q36 0 74.5 16t78.5 48z" />
    <glyph glyph-name="e" unicode="e" horiz-adv-x="572" 
d="M526 92v-46q-107 -60 -207 -60q-121 0 -199 80.5t-78 205.5q0 124 74.5 206.5t187.5 82.5q102 0 158.5 -67t56.5 -187v-15h-374q-1 -17 -1 -23q0 -95 60 -159.5t149 -64.5q85 0 173 47zM146 322h102q109 0 138 11t29 52q0 64 -31.5 104.5t-81.5 40.5q-62 0 -104 -56.5
t-52 -151.5z" />
    <glyph glyph-name="f" unicode="f" horiz-adv-x="401" 
d="M114 508h-91v37h91v50q0 104 49.5 156t149.5 52q93 0 139 -48l-69 -76q-36 94 -102 94q-38 0 -57 -34t-19 -103v-91h155v-37h-155v-379q0 -61 18.5 -80t80.5 -19h7v-30h-288v30h10q50 0 65.5 19t15.5 80v379z" />
    <glyph glyph-name="g" unicode="g" horiz-adv-x="602" 
d="M157 0q-37 28 -49 46t-16 52l122 84q-64 16 -102 66t-38 117q0 87 56.5 141t147.5 54q52 0 98 -15h196v-45h-123q49 -65 49 -131q0 -91 -57.5 -143t-158.5 -52h-24q-57 -33 -57 -58q0 -40 109 -40h112q142 0 142 -116q0 -84 -74.5 -135t-197.5 -51q-117 0 -178.5 38.5
t-68.5 115.5zM287 205q52 0 82.5 43.5t30.5 118.5q0 76 -30.5 119.5t-82.5 43.5q-53 0 -83.5 -43.5t-30.5 -119.5q0 -75 30.5 -118.5t83.5 -43.5zM194 0q-43 -37 -43 -89q0 -47 43 -77t110 -30q72 0 121 35.5t49 87.5q0 41 -27 57t-94 16h-159z" />
    <glyph glyph-name="h" unicode="h" horiz-adv-x="697" 
d="M220 417v-288q0 -61 16 -80t69 -19h6v-30h-273v30h9q50 0 66 19t16 80v459q0 70 -9.5 89.5t-53.5 37.5l-28 12v8l182 68v-356q58 57 110.5 85.5t98.5 28.5q67 0 110 -46q44 -46 44 -169v-217q0 -61 16.5 -80t67.5 -19h7v-30h-272v30h8q51 0 67 19t16 80v219
q0 72 -24 104.5t-77 32.5q-39 0 -82 -17t-90 -51z" />
    <glyph glyph-name="i" unicode="i" horiz-adv-x="341" 
d="M220 558v-429q0 -61 16 -80t67 -19h8v-30h-273v30h10q50 0 65.5 19t15.5 80v214q0 74 -8.5 91t-57.5 39l-25 12v7zM158 629q-27 0 -45.5 18.5t-18.5 45.5t18.5 46t45.5 19q28 0 46.5 -19t18.5 -46t-18.5 -45.5t-46.5 -18.5z" />
    <glyph glyph-name="j" unicode="j" horiz-adv-x="337" 
d="M4 -226v36q91 39 118.5 86t27.5 163v288q0 69 -10 88t-56 38l-29 12v7l186 68v-504q0 -90 -18 -137t-65 -78q-75 -50 -154 -67zM197 629q-27 0 -45.5 18.5t-18.5 45.5t18.5 46t45.5 19t46 -19t19 -46t-19 -45.5t-46 -18.5z" />
    <glyph glyph-name="k" unicode="k" horiz-adv-x="625" 
d="M216 307v-178q0 -61 16.5 -80t69.5 -19h5v-30h-273v30h9q51 0 66.5 19t15.5 80v461q0 68 -10 88t-52 37l-29 12v8l182 68v-496l147 124q64 54 65 69t-42 15h-7v30h193v-30h-8q-36 0 -146 -91l-108 -90l181 -205q88 -99 127 -99h7v-30h-135z" />
    <glyph glyph-name="l" unicode="l" horiz-adv-x="341" 
d="M212 803v-674q0 -61 16.5 -80t68.5 -19h6v-30h-273v30h9q51 0 66.5 19t15.5 80v459q0 70 -9.5 89t-53.5 38l-28 12v8z" />
    <glyph glyph-name="m" unicode="m" horiz-adv-x="1000" 
d="M220 417v-288q0 -61 16 -80t69 -19h6v-30h-273v30h8q51 0 67 19t16 80v226q0 62 -10 81t-53 37l-28 12v7l182 69v-107q58 53 105.5 80t84.5 27q53 0 90 -30.5t47 -83.5q60 57 110.5 85.5t91.5 28.5q68 0 106 -55q32 -45 32 -158v-219q0 -61 15.5 -80t67.5 -19h8v-30h-273
v30h9q50 0 66 19t16 80v227q0 67 -22 98t-69 31q-36 0 -73.5 -17t-78.5 -51v-288q0 -61 16.5 -80t68.5 -19h6v-30h-272v30h8q51 0 66.5 19t15.5 80v229q0 67 -21 97t-68 30q-32 0 -70.5 -17t-82.5 -51z" />
    <glyph glyph-name="n" unicode="n" horiz-adv-x="697" 
d="M220 417v-288q0 -61 16 -80t69 -19h6v-30h-273v30h9q50 0 66 19t16 80v220q0 67 -10 86t-53 38l-28 12v7l182 68v-113q58 57 110.5 85.5t98.5 28.5q67 0 110 -46q44 -46 44 -169v-217q0 -61 16.5 -80t67.5 -19h7v-30h-272v30h8q51 0 67 19t16 80v219q0 72 -24 104.5
t-77 32.5q-39 0 -82 -17t-90 -51z" />
    <glyph glyph-name="o" unicode="o" horiz-adv-x="636" 
d="M318 -14q-121 0 -198.5 80.5t-77.5 206.5q0 125 77.5 206.5t198.5 81.5t199 -81.5t78 -206.5q0 -126 -78 -206.5t-199 -80.5zM318 19q75 0 121 70t46 184t-46 183.5t-121 69.5t-121 -69.5t-46 -183.5t46 -184t121 -70z" />
    <glyph glyph-name="p" unicode="p" horiz-adv-x="689" 
d="M208 3v-86q0 -60 16.5 -79t68.5 -19h6v-30h-273v30h5q53 0 69.5 19t16.5 79v429q0 69 -9.5 89.5t-51.5 37.5l-30 12v7l182 69v-102q55 51 106.5 76.5t99.5 25.5q99 0 162.5 -76.5t63.5 -194.5q0 -136 -84 -220t-220 -84q-31 0 -63 4.5t-65 12.5zM208 417v-321
q29 -35 72 -56.5t85 -21.5q77 0 127 66t50 168t-50.5 165.5t-130.5 63.5q-36 0 -74 -16t-79 -48z" />
    <glyph glyph-name="q" unicode="q" horiz-adv-x="667" 
d="M572 561v-644q0 -60 16 -79t69 -19h6v-30h-273v30h9q51 0 66.5 19t15.5 79v169q-55 -50 -106 -75t-100 -25q-98 0 -162 76t-64 193q0 134 83.5 220t213.5 86q44 0 85.5 -7.5t80.5 -21.5zM481 128l1 321q-33 39 -72.5 58.5t-85.5 19.5q-76 0 -126 -65.5t-50 -168.5
q0 -101 50 -165t130 -64q36 0 74.5 16t78.5 48z" />
    <glyph glyph-name="r" unicode="r" horiz-adv-x="492" 
d="M224 408v-279q0 -61 18.5 -79.5t79.5 -18.5h8v-31h-292v30h9q53 0 69.5 19t16.5 80v214q0 73 -10 92t-56 38l-29 12v7l186 66v-107q51 55 93.5 82.5t77.5 27.5q61 0 102 -63l-74 -80q-37 63 -80 63q-39 0 -109 -64q-2 -1 -10 -9z" />
    <glyph glyph-name="s" unicode="s" horiz-adv-x="485" 
d="M65 21l-12 138h39l2 -10q21 -134 137 -134q51 0 87 31.5t36 75.5q0 27 -19 48q-18 21 -89 59l-47 26q-133 73 -133 162q0 66 49 105t133 39q70 0 155 -31v-113h-39l-2 9q-3 23 -9 40t-17 30t-31 23.5t-59 10.5q-41 0 -67 -23.5t-26 -60.5q0 -54 103 -112l51 -28
q75 -41 104 -77q28 -35 28 -86q0 -72 -57 -114.5t-151 -42.5q-98 0 -166 35z" />
    <glyph glyph-name="t" unicode="t" horiz-adv-x="409" 
d="M386 63v-44q-60 -33 -127 -33q-83 0 -119 49t-36 167v306h-89l180 176v-139h175v-37h-175v-290q0 -96 26 -140t82 -44q30 0 83 29z" />
    <glyph glyph-name="u" unicode="u" horiz-adv-x="689" 
d="M478 92q-50 -53 -101.5 -79.5t-105.5 -26.5q-81 0 -119 51q-38 52 -38 163v143q0 73 -9.5 92t-53.5 38l-28 12v7l182 69v-329q0 -106 22.5 -140.5t77.5 -34.5q45 0 80 14.5t93 57.5v216q0 71 -10 90t-53 38l-28 12v7l181 69v-432q0 -41 19 -55t72 -14h4v-30l-185 -44v106
z" />
    <glyph glyph-name="v" unicode="v" horiz-adv-x="614" 
d="M303 -14l-208 431q-31 62 -47 80t-41 18h-7v30h227v-30h-9q-48 0 -48 -24q0 -16 27 -73l147 -308l128 308q21 49 21 67q0 30 -53 30h-8v30h182v-30h-8q-23 0 -40 -20.5t-42 -76.5l-188 -432h-33z" />
    <glyph glyph-name="w" unicode="w" horiz-adv-x="826" 
d="M219 -14l-149 429q-33 100 -64 100h-6v30h208v-30h-6q-53 0 -53 -32q0 -9 4 -23q5 -17 6 -20q6 -23 7 -25l101 -292l148 422h31l175 -424l89 294q15 47 15 69q0 31 -43 31h-8v30h152v-30h-8q-36 0 -68 -100l-135 -429h-31l-178 437l-155 -437h-32z" />
    <glyph glyph-name="x" unicode="x" horiz-adv-x="572" 
d="M268 227l-84 -101q-50 -62 -51 -77q-1 -19 30 -19h8v-30h-163v30h11q35 0 114 95l110 133l-116 156q-52 70 -67.5 85.5t-32.5 15.5h-8v30h209v-30h-8q-31 0 -31 -18q0 -13 54 -84l62 -83l69 83q58 69 58 86q0 16 -31 16h-7v30h159v-30h-8q-23 0 -48 -20.5t-74 -80.5
l-94 -115l130 -175q70 -94 106 -94h7v-30h-223v30h7q31 0 31 21q0 17 -43 74z" />
    <glyph glyph-name="y" unicode="y" horiz-adv-x="636" 
d="M310 17l-192 400q-31 61 -47.5 79.5t-40.5 18.5h-7v30h227v-30h-9q-48 0 -48 -24q0 -16 28 -74l138 -295l140 295q24 50 24 66q0 32 -48 32h-5v30h167v-30h-7q-25 0 -41 -18.5t-46 -80.5l-222 -459q-33 -70 -52.5 -96t-59.5 -54q-56 -33 -122 -33q-37 0 -79 11l48 85
q36 -9 65 -9q57 0 100 30t71 91z" />
    <glyph glyph-name="z" unicode="z" horiz-adv-x="545" 
d="M49 0v30l318 489h-99q-116 0 -140 -19q-27 -24 -36 -67l-1 -9h-37l16 121h408v-26l-318 -489h130q86 0 120 19.5t43 74.5l2 9h41l-17 -133h-430z" />
    <glyph glyph-name="braceleft" unicode="{" horiz-adv-x="447" 
d="M200 313q84 -61 84 -134q0 -29 -24 -96l-15 -41q-22 -59 -22 -85q0 -41 33 -74.5t81 -43.5v-20q-80 7 -133 55t-53 114q0 45 27 109l20 46q22 50 22 89q0 60 -80 60h-38v41h38q79 0 79 60q0 40 -21 89l-20 47q-27 63 -27 110q0 66 53 113.5t133 54.5v-20
q-48 -9 -81 -42.5t-33 -73.5q0 -27 22 -88l15 -40q24 -68 24 -98q0 -71 -84 -132z" />
    <glyph glyph-name="bar" unicode="|" horiz-adv-x="246" 
d="M83 -22v802h80v-802h-80z" />
    <glyph glyph-name="braceright" unicode="}" horiz-adv-x="447" 
d="M247 313q-84 60 -84 134q0 28 24 96l15 40q22 61 22 87q0 40 -33 74t-81 43v20q80 -7 132.5 -54.5t52.5 -113.5q0 -47 -26 -110l-20 -47q-22 -49 -22 -89q0 -60 80 -60h38v-41h-38q-80 0 -80 -59q0 -40 22 -90l20 -46q26 -64 26 -109q0 -66 -52.5 -114t-132.5 -55v20
q48 10 81 43.5t33 73.5q0 27 -22 86l-15 41q-24 67 -24 98q0 71 84 132z" />
    <glyph glyph-name="asciitilde" unicode="~" horiz-adv-x="667" 
d="M99 193h-38v9q0 67 39.5 114.5t96.5 47.5q44 0 126 -51l37 -22q86 -52 121 -52q31 0 59 33.5t28 70.5v6h38v-10q0 -66 -41.5 -113.5t-100.5 -47.5q-45 0 -121 49l-38 24q-81 52 -117 52q-33 0 -61 -31.5t-28 -68.5v-10z" />
    <glyph glyph-name="Euro" unicode="&#x20ac;" horiz-adv-x="667" 
d="M523 407h-322q-1 -24 -1 -47h309l-13 -43h-295q4 -119 47 -197q49 -92 134 -92q75 0 126 38q30 24 76 88l18 -11q-49 -77 -88 -109q-64 -52 -154 -52q-129 0 -199 106q-58 87 -69 229h-56l12 43h42v10q0 16 1 37h-55l12 44h47q19 132 91 218q83 101 211 101q96 0 190 -50
v-167h-22q-14 179 -168 179q-89 0 -140 -93q-40 -73 -52 -188h331z" />
    <glyph glyph-name="quotesinglbase" unicode="&#x201a;" horiz-adv-x="303" 
d="M76 -181v33q76 48 82 152l-82 42q10 83 82 83q33 0 54 -25t21 -63q0 -127 -157 -222z" />
    <glyph glyph-name="florin" unicode="&#x192;" horiz-adv-x="667" 
d="M228 -181h-91l113 579h-136v34h144l13 65q57 283 239 283q80 0 134 -57l-63 -72q-6 44 -28 71.5t-53 27.5q-46 0 -75.5 -47.5t-52.5 -159.5l-22 -111h175v-34h-182z" />
    <glyph glyph-name="quotedblbase" unicode="&#x201e;" horiz-adv-x="530" 
d="M83 -181v33q77 48 83 152l-83 42q11 83 83 83q33 0 54 -25t21 -63q0 -127 -158 -222zM290 -181v33q76 48 83 152l-83 42q11 83 83 83q32 0 53 -25t21 -63q0 -127 -157 -222z" />
    <glyph glyph-name="ellipsis" unicode="&#x2026;" horiz-adv-x="1030" 
d="M97 53q0 32 22 54t53 22q33 0 54.5 -22t21.5 -54t-21.5 -53.5t-54.5 -21.5q-31 0 -53 21.5t-22 53.5zM439 53q0 32 22 54t54 22t54 -22t22 -54t-22 -53.5t-54 -21.5t-54 21.5t-22 53.5zM782 53q0 32 22 54t54 22t54 -22t22 -54t-22 -53.5t-54 -21.5t-54 21.5t-22 53.5z
" />
    <glyph glyph-name="dagger" unicode="&#x2020;" horiz-adv-x="667" 
d="M350 -181h-31l-40 515l40 169l-198 -17v69l198 -14l-40 217h107l-36 -217l195 14v-69l-195 17l36 -169z" />
    <glyph glyph-name="daggerdbl" unicode="&#x2021;" horiz-adv-x="667" 
d="M389 -181h-108l39 218l-199 -14v68l199 -16l-39 207l39 221l-199 -17v68l199 -13l-39 217h108l-38 -217l194 13v-68l-194 17l38 -221l-38 -207l194 16v-68l-194 14z" />
    <glyph glyph-name="circumflex" unicode="&#x2c6;" horiz-adv-x="638" 
d="M183 743v-65h272v65h-272z" />
    <glyph glyph-name="perthousand" unicode="&#x2030;" horiz-adv-x="1280" 
d="M133 0l544 758h64l-542 -758h-66zM688 0q-77 0 -125 63.5t-48 163.5q0 101 48 164.5t125 63.5q76 0 124 -63.5t48 -164.5q0 -100 -48 -163.5t-124 -63.5zM688 30q43 0 68 53t25 144t-25 144t-68 53t-68 -52.5t-25 -144.5q0 -91 25 -144t68 -53zM1087 0q-76 0 -124 63.5
t-48 163.5q0 101 48 164.5t124 63.5q77 0 125 -63.5t48 -164.5q0 -100 -48 -163.5t-125 -63.5zM1087 30q43 0 68 53t25 144t-25 144t-68 53t-67.5 -52.5t-24.5 -144.5q0 -91 24.5 -144t67.5 -53zM193 303q-76 0 -124 63.5t-48 163.5q0 101 48 164.5t124 63.5q77 0 125 -63.5
t48 -164.5q0 -100 -48 -163.5t-125 -63.5zM193 333q43 0 68 53t25 144q0 92 -25 144.5t-68 52.5t-67.5 -52.5t-24.5 -144.5q0 -91 24.5 -144t67.5 -53z" />
    <glyph glyph-name="Scaron" unicode="&#x160;" horiz-adv-x="572" 
d="M52 8l-10 166h38l1 -7q15 -77 61 -118t118 -41q64 0 110.5 43.5t46.5 105.5q0 77 -119 158l-75 52q-110 75 -144 117t-34 101q0 88 71.5 141.5t187.5 53.5q91 0 185 -32l16 -142h-39l-3 8q-39 136 -178 136q-63 0 -104 -37.5t-41 -95.5q0 -73 102 -142l108 -75
q102 -69 133.5 -110.5t31.5 -103.5q0 -96 -73 -152t-196 -56q-102 0 -194 30zM304 909l79 30h95l-159 -98h-30l-160 98h87z" />
    <glyph glyph-name="guilsinglleft" unicode="&#x2039;" horiz-adv-x="322" 
d="M136 273l148 -212h-30l-212 197v30l212 197h30z" />
    <glyph glyph-name="OE" unicode="&#x152;" horiz-adv-x="1114" 
d="M632 0v65q-80 -87 -232 -87q-157 0 -257.5 112.5t-100.5 287.5q0 171 100 286.5t248 115.5q145 0 242 -84v62h411l17 -141h-42l-1 10q-10 64 -38 78.5t-146 14.5h-103v-307h114q78 0 99.5 13.5t21.5 61.5v8h38v-197h-38v8q0 43 -18 61q-14 15 -103 15h-115v-258
q0 -48 41.5 -67.5t144.5 -19.5h20q47 0 69 22.5t31 81.5l2 9h39l-16 -164q-94 7 -140 7q-47 0 -113 4q-64 2 -78 2h-97zM632 349v60q0 161 -60.5 251t-169.5 90q-108 0 -177.5 -104t-69.5 -267t69.5 -267t177.5 -104q109 0 169.5 90t60.5 251z" />
    <glyph glyph-name="quoteleft" unicode="&#x2018;" horiz-adv-x="303" 
d="M228 803v-32q-77 -49 -83 -154l83 -42q-11 -83 -83 -83q-33 0 -54 25t-21 64q0 127 158 222z" />
    <glyph glyph-name="quoteright" unicode="&#x2019;" horiz-adv-x="303" 
d="M76 492v33q76 48 82 153l-82 42q10 83 82 83q33 0 54 -25t21 -64q0 -127 -157 -222z" />
    <glyph glyph-name="quotedblleft" unicode="&#x201c;" horiz-adv-x="530" 
d="M447 803v-32q-76 -49 -83 -154l83 -42q-10 -83 -83 -83q-32 0 -53 25t-21 64q0 127 157 222zM241 803v-32q-76 -49 -83 -154l83 -42q-11 -83 -83 -83q-33 0 -54 25t-21 64q0 127 158 222z" />
    <glyph glyph-name="quotedblright" unicode="&#x201d;" horiz-adv-x="530" 
d="M83 492v33q77 48 83 153l-83 42q11 83 83 83q33 0 54 -25t21 -64q0 -127 -158 -222zM290 492v33q76 48 83 153l-83 42q11 83 83 83q32 0 53 -25t21 -64q0 -127 -157 -222z" />
    <glyph glyph-name="bullet" unicode="&#x2022;" horiz-adv-x="667" 
d="M333 167q-86 0 -147 61t-61 147t61 147t147 61q87 0 148 -61t61 -147t-61 -147t-148 -61z" />
    <glyph glyph-name="endash" unicode="&#x2013;" horiz-adv-x="515" 
d="M30 280v53h455v-53h-455z" />
    <glyph glyph-name="emdash" unicode="&#x2014;" horiz-adv-x="1030" 
d="M30 280v53h970v-53h-970z" />
    <glyph glyph-name="tilde" unicode="&#x2dc;" horiz-adv-x="636" 
d="M197 629h-30q0 58 22.5 91.5t61.5 33.5q27 0 58 -19l20 -13q39 -25 61 -25q43 0 48 57h32q0 -59 -23 -92t-64 -33q-29 0 -66 23l-21 14q-30 20 -48 20q-45 0 -51 -57z" />
    <glyph glyph-name="trademark" unicode="&#x2122;" horiz-adv-x="894" 
d="M174 724h-29q-39 0 -53 -9.5t-18 -39.5l-2 -11h-34l11 94h315l11 -94h-34l-2 11q-4 30 -18 39.5t-53 9.5h-29v-276q0 -26 6.5 -32.5t32.5 -6.5h12v-30h-166v30h11q26 0 32.5 6.5t6.5 32.5v276zM493 657v-209q0 -26 5.5 -32.5t26.5 -6.5h11v-30h-126v30h11q21 0 27 6.5
t6 32.5v240q0 26 -6 33t-27 7h-11v30h97l130 -252l120 252h99v-30h-11q-21 0 -26.5 -7t-5.5 -33v-240q0 -26 5.5 -32.5t26.5 -6.5h11v-30h-148v30h13q21 0 27 6.5t6 32.5v231l-131 -274z" />
    <glyph glyph-name="scaron" unicode="&#x161;" horiz-adv-x="485" 
d="M65 21l-12 138h39l2 -10q21 -134 137 -134q51 0 87 31.5t36 75.5q0 27 -19 48q-18 21 -89 59l-47 26q-133 73 -133 162q0 66 49 105t133 39q70 0 155 -31v-113h-39l-2 9q-3 23 -9 40t-17 30t-31 23.5t-59 10.5q-41 0 -67 -23.5t-26 -60.5q0 -54 103 -112l51 -28
q75 -41 104 -77q28 -35 28 -86q0 -72 -57 -114.5t-151 -42.5q-98 0 -166 35zM247 705l106 83h30l-121 -159h-31l-121 159h31z" />
    <glyph glyph-name="guilsinglright" unicode="&#x203a;" horiz-adv-x="322" 
d="M186 273l-148 212h30l212 -197v-30l-212 -197h-30z" />
    <glyph glyph-name="oe" unicode="&#x153;" horiz-adv-x="1015" 
d="M540 453q80 108 205 108q104 0 161 -66.5t57 -187.5v-15h-374q-1 -17 -1 -23q0 -95 60 -159.5t149 -64.5q84 0 173 47v-46q-107 -60 -200 -60q-73 0 -130.5 26.5t-99.5 80.5q-85 -107 -221 -107q-122 0 -199.5 80t-77.5 207q0 125 77.5 206.5t197.5 81.5q147 0 223 -108z
M316 526q-74 0 -120 -69.5t-46 -183.5t46 -184t120 -70q75 0 121 70t46 184t-46 183.5t-121 69.5zM593 322h101q109 0 138 11t29 52q0 64 -32 104.5t-81 40.5q-62 0 -104 -56.5t-51 -151.5z" />
    <glyph glyph-name="Ydieresis" unicode="&#x178;" horiz-adv-x="644" 
d="M276 355l-161 275q-57 97 -108 97h-7v31h242v-31h-10q-35 0 -35 -24q0 -23 29 -73l132 -231l127 233q27 50 27 66q0 26 -40 29h-11v31h183v-31h-11q-36 0 -54 -16.5t-54 -81.5l-150 -274v-226q0 -62 18.5 -80.5t79.5 -18.5h7v-30h-309v30h8q60 0 78.5 18.5t18.5 80.5v226
zM234 839q-22 0 -36.5 15t-14.5 36q0 22 14.5 36.5t36.5 14.5q21 0 36 -14.5t15 -36.5q0 -21 -15 -36t-36 -15zM442 839q-21 0 -36 15t-15 36q0 22 15 36.5t36 14.5t36 -14.5t15 -36.5q0 -21 -15 -36t-36 -15z" />
    <glyph glyph-name="nonbreakingspace" unicode="&#xa0;" horiz-adv-x="278" 
 />
    <glyph glyph-name="exclamdown" unicode="&#xa1;" horiz-adv-x="303" 
d="M137 349h29l46 -567l-120 -23zM151 561q28 0 46.5 -19t18.5 -46t-18.5 -45.5t-46.5 -18.5q-27 0 -45.5 18.5t-18.5 45.5t18.5 46t45.5 19z" />
    <glyph glyph-name="cent" unicode="&#xa2;" horiz-adv-x="667" 
d="M375 -75h-38v165q-122 17 -188 91t-66 194t68.5 197.5t185.5 91.5v169h38v-169q37 0 92.5 -10t81.5 -21l15 -144h-37l-3 6q-43 122 -149 138v-489q25 -1 39 -1q65 0 139 26v-44q-88 -35 -178 -35v-165zM337 151v482q-67 -9 -107.5 -79t-40.5 -180q0 -189 148 -223z" />
    <glyph glyph-name="sterling" unicode="&#xa3;" horiz-adv-x="667" 
d="M76 0v80q93 24 129 205l22 113h-91v38h99l10 52q32 163 80 227.5t136 64.5q82 0 126 -65l-57 -68q-11 46 -34 74.5t-50 28.5q-36 0 -56.5 -43.5t-45.5 -172.5l-19 -98h160v-38h-168l-9 -51q-20 -100 -52.5 -150.5t-119.5 -116.5h409v-80h-469z" />
    <glyph glyph-name="currency" unicode="&#xa4;" horiz-adv-x="667" 
d="M523 407h-322q-1 -24 -1 -47h309l-13 -43h-295q4 -119 47 -197q49 -92 134 -92q75 0 126 38q30 24 76 88l18 -11q-49 -77 -88 -109q-64 -52 -154 -52q-129 0 -199 106q-58 87 -69 229h-56l12 43h42v10q0 16 1 37h-55l12 44h47q19 132 91 218q83 101 211 101q96 0 190 -50
v-167h-22q-14 179 -168 179q-89 0 -140 -93q-40 -73 -52 -188h331z" />
    <glyph glyph-name="yen" unicode="&#xa5;" horiz-adv-x="667" 
d="M292 205h-171v37h171v76h-171v38h167l-162 274q-57 97 -107 97h-8v31h242v-31h-10q-35 0 -35 -24q0 -22 29 -73l136 -237l127 237q26 48 26 67q0 30 -44 30h-9v31h182v-31h-10q-37 0 -55 -16t-54 -82l-150 -273h171v-38h-175v-76h175v-37h-175v-76q0 -62 18.5 -80.5
t79.5 -18.5h8v-30h-302v30h8q60 0 79 18.5t19 80.5v76z" />
    <glyph glyph-name="brokenbar" unicode="&#xa6;" horiz-adv-x="246" 
d="M83 -22v355h80v-355h-80zM83 424v356h80v-356h-80z" />
    <glyph glyph-name="section" unicode="&#xa7;" horiz-adv-x="667" 
d="M110 -148l-11 163h38l1 -8q13 -73 61 -115t117 -42q68 0 115 37.5t47 91.5q0 62 -119 125l-67 35q-108 57 -148.5 100t-40.5 100q0 67 61 141q-31 23 -46 52.5t-15 65.5q0 81 71 131.5t184 50.5q100 0 188 -32l16 -142h-39l-2 7q-12 59 -63.5 98t-117.5 39
q-62 0 -106.5 -35.5t-44.5 -85.5q0 -36 30 -65q29 -29 101 -67l53 -27q109 -57 156 -105t47 -103q0 -70 -63 -141q59 -42 59 -115q0 -81 -75.5 -134t-192.5 -53q-100 0 -194 33zM487 137q28 36 28 72q0 42 -40 81t-141 95l-145 80q-26 -34 -26 -74q0 -47 45 -88t171 -108z
" />
    <glyph glyph-name="dieresis" unicode="&#xa8;" horiz-adv-x="636" 
d="M214 629q-21 0 -36 15t-15 36t15 36t36 15t36 -15t15 -36t-15 -36t-36 -15zM422 629q-21 0 -35.5 15t-14.5 36t14.5 36t35.5 15q22 0 37 -15t15 -36t-15 -36t-37 -15z" />
    <glyph glyph-name="copyright" unicode="&#xa9;" horiz-adv-x="886" 
d="M606 148q-75 -27 -142 -27q-112 0 -178 69.5t-66 186.5q0 115 66 185.5t174 70.5q90 0 146 -17l12 -112h-35l-1 8q-21 90 -120 90q-66 0 -110.5 -67t-44.5 -167q0 -94 46.5 -155.5t117.5 -61.5q97 0 115 101l1 9h31zM443 -22q-167 0 -284 117t-117 283q0 167 117 284.5
t284 117.5q166 0 284 -117.5t118 -284.5q0 -166 -118 -283t-284 -117zM443 15q151 0 257.5 106.5t106.5 256.5q0 151 -106.5 257.5t-257.5 106.5t-257 -106.5t-106 -257.5q0 -150 106 -256.5t257 -106.5z" />
    <glyph glyph-name="ordfeminine" unicode="&#xaa;" horiz-adv-x="364" 
d="M230 494q-24 -31 -52.5 -46t-60.5 -15q-34 0 -56.5 22.5t-22.5 56.5q0 38 34.5 64t114.5 49l38 10v42q0 75 -63 75q-46 0 -46 -45v-18l-71 -22v14q0 40 43 69.5t101 29.5q98 0 98 -89v-136q0 -50 8 -66.5t34 -16.5q9 0 24 2v-24q-32 -17 -61 -17q-51 0 -62 61zM225 608
l-13 -4q-66 -21 -87 -36.5t-21 -46.5q0 -19 13.5 -33t32.5 -14q31 0 53 23.5t22 58.5v52z" />
    <glyph glyph-name="guillemotleft" unicode="&#xab;" horiz-adv-x="542" 
d="M136 273l148 -212h-30l-212 197v30l212 197h30zM355 273l148 -212h-29l-213 197v30l213 197h29z" />
    <glyph glyph-name="logicalnot" unicode="&#xac;" horiz-adv-x="667" 
d="M606 379v-212h-53v159h-492v53h545z" />
    <glyph glyph-name="registered" unicode="&#xae;" horiz-adv-x="886" 
d="M390 367v-142q0 -33 7.5 -45.5t29.5 -12.5q5 0 17 1l2 -31h-193v31h13q29 0 37.5 10.5t8.5 46.5v320q0 37 -8.5 47.5t-37.5 10.5h-13v30h191q91 0 128.5 -23.5t37.5 -79.5q0 -51 -27 -87t-81 -57q23 -15 69 -87l32 -50q50 -81 71 -81h12v-31h-106l-141 230h-49zM390 398
h62q39 12 58.5 41.5t19.5 76.5q0 44 -30 65.5t-91 21.5h-19v-205zM443 -22q-167 0 -284 117t-117 283q0 167 117 284.5t284 117.5q166 0 284 -117.5t118 -284.5q0 -166 -118 -283t-284 -117zM443 15q151 0 257.5 106.5t106.5 256.5q0 151 -106.5 257.5t-257.5 106.5
t-257 -106.5t-106 -257.5q0 -150 106 -256.5t257 -106.5z" />
    <glyph glyph-name="macron" unicode="&#xaf;" horiz-adv-x="333" 
d="M-51 684h312v-58h-312v58z" />
    <glyph glyph-name="macron" unicode="&#x2c9;" horiz-adv-x="333" 
d="M-51 684h312v-58h-312v58z" />
    <glyph glyph-name="degree" unicode="&#xb0;" horiz-adv-x="326" 
d="M163 530q-52 0 -88.5 37t-36.5 88q0 52 36.5 88.5t88.5 36.5t88.5 -36.5t36.5 -88.5q0 -51 -36.5 -88t-88.5 -37zM163 561q39 0 67 27.5t28 66.5t-28 67t-67 28t-67 -28t-28 -67t28 -66.5t67 -27.5z" />
    <glyph glyph-name="plusminus" unicode="&#xb1;" horiz-adv-x="667" 
d="M606 405v-53h-246v-246h-53v246h-246v53h246v246h53v-246h246zM606 53v-53h-545v53h545z" />
    <glyph glyph-name="twosuperior" unicode="&#xb2;" horiz-adv-x="401" 
d="M43 314v30q9 10 91 106q54 63 89.5 126.5t35.5 96.5q0 29 -20.5 47.5t-52.5 18.5q-57 0 -132 -65l2 55q65 51 138 51q62 0 100 -30t38 -81q0 -42 -38.5 -94t-170.5 -192h220v-69h-300z" />
    <glyph glyph-name="threesuperior" unicode="&#xb3;" horiz-adv-x="401" 
d="M113 530l23 57h15q43 0 76 26.5t33 61.5q0 30 -23 51t-55 21q-49 0 -108 -44v42q61 35 124 35q57 0 91.5 -26t34.5 -70q0 -30 -22.5 -56.5t-67.5 -49.5q57 -18 85 -49t28 -75q0 -60 -51 -105.5t-118 -45.5q-86 0 -138 55l48 49q43 -74 104 -74q39 0 62.5 26.5t23.5 69.5
q0 50 -35.5 75.5t-106.5 25.5h-23z" />
    <glyph glyph-name="acute" unicode="&#xb4;" horiz-adv-x="636" 
d="M317 788h107l-208 -159h-42z" />
    <glyph glyph-name="mu" unicode="&#xb5;" horiz-adv-x="670" 
d="M111 -181h-90l145 726h91l-56 -281q-11 -52 -11 -86q0 -53 28 -85t74 -32q45 0 88 35t85 106l68 343h91l-83 -416q-11 -56 -11 -101v-28h-92q-1 15 -1 20q0 48 13 109q-46 -72 -93.5 -107.5t-95.5 -35.5q-58 0 -108 40z" />
    <glyph glyph-name="mu" unicode="&#x3bc;" horiz-adv-x="670" 
d="M111 -181h-90l145 726h91l-56 -281q-11 -52 -11 -86q0 -53 28 -85t74 -32q45 0 88 35t85 106l68 343h91l-83 -416q-11 -56 -11 -101v-28h-92q-1 15 -1 20q0 48 13 109q-46 -72 -93.5 -107.5t-95.5 -35.5q-58 0 -108 40z" />
    <glyph glyph-name="paragraph" unicode="&#xb6;" horiz-adv-x="667" 
d="M521 -181h-42v897h-91v-897h-42v511h-12q-127 0 -203 57t-76 152t68 158q66 61 230 61h243v-42h-75v-897z" />
    <glyph glyph-name="periodcentered" unicode="&#xb7;" horiz-adv-x="278" 
d="M199 342q0 -26 -18.5 -44t-44.5 -18t-44 18t-18 44t18 44.5t44 18.5q27 0 45 -18.5t18 -44.5z" />
    <glyph glyph-name="periodcentered" unicode="&#x2219;" horiz-adv-x="278" 
d="M199 342q0 -26 -18.5 -44t-44.5 -18t-44 18t-18 44t18 44.5t44 18.5q27 0 45 -18.5t18 -44.5z" />
    <glyph glyph-name="cedilla" unicode="&#xb8;" horiz-adv-x="636" 
d="M348 0l-38 -69q95 -9 95 -75q0 -33 -22 -50t-67 -17q-44 0 -77 13v30q32 -13 52 -13q25 0 37.5 10t12.5 30q0 41 -81 50l50 91h38z" />
    <glyph glyph-name="onesuperior" unicode="&#xb9;" horiz-adv-x="401" 
d="M82 694v30l155 56v-398q0 -22 6.5 -28t27.5 -6q26 0 57 -4v-30h-246v30q29 2 51 2q24 0 31.5 7t7.5 29v327z" />
    <glyph glyph-name="ordmasculine" unicode="&#xba;" horiz-adv-x="390" 
d="M195 780q74 0 122 -48.5t48 -125.5q0 -75 -48 -124t-122 -49t-122 49t-48 124q0 77 48 125.5t122 48.5zM195 752q-43 0 -69.5 -40t-26.5 -106q0 -65 26.5 -105.5t69.5 -40.5t70 40.5t27 105.5q0 66 -27 106t-70 40z" />
    <glyph glyph-name="guillemotright" unicode="&#xbb;" horiz-adv-x="542" 
d="M406 273l-148 212h30l212 -197v-30l-212 -197h-30zM186 273l-148 212h30l212 -197v-30l-212 -197h-30z" />
    <glyph glyph-name="onequarter" unicode="&#xbc;" horiz-adv-x="883" 
d="M47 694v30l156 56v-398q0 -22 6 -28t28 -6q26 0 56 -4v-30h-246v30q30 2 52 2q24 0 31.5 7t7.5 29v327zM98 -22l582 802h62l-578 -802h-66zM691 129h-223v53l262 284h26v-280h79v-57h-79v-129h-65v129zM691 186v191l-176 -191h176z" />
    <glyph glyph-name="onehalf" unicode="&#xbd;" horiz-adv-x="883" 
d="M38 694v30l155 56v-398q0 -22 6.5 -28t28.5 -6q26 0 56 -4v-30h-246v30q29 2 51 2q24 0 32 7t8 29v327zM88 -22l582 802h62l-577 -802h-67zM546 0v30q8 10 91 106q53 63 89 126.5t36 95.5q0 30 -20.5 48t-53.5 18q-57 0 -132 -64l3 54q64 52 137 52q62 0 99.5 -30.5
t37.5 -80.5q0 -42 -37.5 -94.5t-170.5 -192.5h220v-68h-299z" />
    <glyph glyph-name="threequarters" unicode="&#xbe;" horiz-adv-x="883" 
d="M83 530l22 57h16q43 0 75.5 26.5t32.5 61.5q0 30 -22.5 51t-54.5 21q-49 0 -109 -44v42q61 35 125 35q57 0 91 -26t34 -70q0 -30 -22 -56.5t-67 -49.5q56 -18 84 -49t28 -75q0 -60 -50.5 -105.5t-118.5 -45.5q-85 0 -138 55l49 49q43 -74 104 -74q38 0 62 26.5t24 69.5
q0 50 -35.5 75.5t-107.5 25.5h-22zM120 -22l582 802h62l-577 -802h-67zM729 129h-224v53l263 284h25v-280h80v-57h-80v-129h-64v129zM729 186v191l-177 -191h177z" />
    <glyph glyph-name="questiondown" unicode="&#xbf;" horiz-adv-x="455" 
d="M224 345h90v-38q0 -58 -13.5 -91t-71.5 -110l-20 -27q-65 -86 -65 -159q0 -53 32.5 -84.5t87.5 -31.5q63 0 145 52l15 -23q-89 -74 -208 -74q-70 0 -120.5 38t-50.5 92q0 65 69 139l16 18q58 64 76 111t18 140v48zM269 561q26 0 45 -19t19 -46t-19 -45.5t-45 -18.5
q-28 0 -46.5 18.5t-18.5 45.5t18.5 46t46.5 19z" />
    <glyph glyph-name="Agrave" unicode="&#xc0;" horiz-adv-x="758" 
d="M194 239l-46 -113q-20 -48 -20 -61q0 -29 50 -34l8 -1v-30h-186v30h8q29 0 48 21t43 78l267 651h31l277 -651q26 -60 41 -79.5t36 -19.5h7v-30h-224v30h8q30 0 40.5 6t10.5 23q0 14 -24 70l-46 110h-329zM208 276h296l-151 358zM499 841h-95l-216 98h155z" />
    <glyph glyph-name="Aacute" unicode="&#xc1;" horiz-adv-x="758" 
d="M194 239l-46 -113q-20 -48 -20 -61q0 -29 50 -34l8 -1v-30h-186v30h8q29 0 48 21t43 78l267 651h31l277 -651q26 -60 41 -79.5t36 -19.5h7v-30h-224v30h8q30 0 40.5 6t10.5 23q0 14 -24 70l-46 110h-329zM208 276h296l-151 358zM270 841l155 98h155l-216 -98h-94z" />
    <glyph glyph-name="Acircumflex" unicode="&#xc2;" horiz-adv-x="760" 
d="M195 240l-47 -114q-20 -47 -20 -60q0 -15 12.5 -23t38.5 -12l8 -1v-30h-187v30h8q30 0 48 21q19 21 43 79l268 653h31l278 -653q12 -31 22.5 -50.5t18.5 -30.5q8 -9 17.5 -14t19.5 -5h6v-30h-224v30h8q15 0 25 1.5t15.5 4.5t8 8.5t2.5 14.5q0 7 -6 24.5t-18 46.5l-46 110
h-330zM209 277h297l-152 359zM252 959v-66h292v66h-292z" />
    <glyph glyph-name="Atilde" unicode="&#xc3;" horiz-adv-x="758" 
d="M194 239l-46 -113q-20 -48 -20 -61q0 -29 50 -34l8 -1v-30h-186v30h8q29 0 48 21t43 78l267 651h31l277 -651q26 -60 41 -79.5t36 -19.5h7v-30h-224v30h8q30 0 40.5 6t10.5 23q0 14 -24 70l-46 110h-329zM208 276h296l-151 358zM239 841h-38q7 44 35.5 71t69.5 27
q23 0 66 -14l41 -13q33 -11 54 -11q38 0 53 38h38q-6 -44 -34 -71t-69 -27q-29 0 -66 14l-36 13q-29 11 -55 11q-41 0 -59 -38z" />
    <glyph glyph-name="Adieresis" unicode="&#xc4;" horiz-adv-x="758" 
d="M194 239l-46 -113q-20 -48 -20 -61q0 -29 50 -34l8 -1v-30h-186v30h8q29 0 48 21t43 78l267 651h31l277 -651q26 -60 41 -79.5t36 -19.5h7v-30h-224v30h8q30 0 40.5 6t10.5 23q0 14 -24 70l-46 110h-329zM208 276h296l-151 358zM275 839q-22 0 -36.5 15t-14.5 36
q0 22 14.5 36.5t36.5 14.5q21 0 36 -14.5t15 -36.5q0 -21 -15 -36t-36 -15zM483 839q-21 0 -36 15t-15 36q0 22 15 36.5t36 14.5t36 -14.5t15 -36.5q0 -21 -15 -36t-36 -15z" />
    <glyph glyph-name="Aring" unicode="&#xc5;" horiz-adv-x="758" 
d="M758 30v-30h-222v30h8q30 0 40 6t10 23q0 13 -24 69l-45 111h-332l-47 -113q-20 -48 -20 -61q0 -29 51 -34l8 -1v-30h-185v30h6q28 0 47.5 21.5t43.5 77.5l269 647q-33 13 -50 33.5t-17 48.5q0 35 24.5 59t59.5 24q34 0 58.5 -24t24.5 -59q0 -28 -16.5 -48.5t-50.5 -33.5
l275 -647q26 -60 41 -79.5t36 -19.5h7zM208 276h295l-151 358zM330 858q0 -22 15.5 -37.5t37.5 -15.5t37.5 15.5t15.5 37.5t-15.5 37.5t-37.5 15.5t-37.5 -15.5t-15.5 -37.5z" />
    <glyph glyph-name="AE" unicode="&#xc6;" horiz-adv-x="1011" 
d="M536 758h411l15 -141h-37l-2 10q-9 64 -37 78.5t-144 14.5h-108v-307h114q77 0 99 13.5t22 61.5v8h38v-197h-38v8q0 43 -18 61q-15 15 -103 15h-114v-258q0 -48 41.5 -67.5t145.5 -19.5h20q46 0 67.5 23t30.5 81l2 9h38l-15 -164q-93 7 -139 7q-48 0 -114 4q-64 2 -77 2
h-189v30h8q49 0 66 20t17 79v110h-307l-74 -111q-36 -59 -36 -71q0 -27 52 -27h9v-30h-180v30h5q22 0 39 16.5t62 81.5zM536 269v422l-286 -422h286z" />
    <glyph glyph-name="Ccedilla" unicode="&#xc7;" horiz-adv-x="708" 
d="M642 16q-139 -37 -225 -37l-26 -48q96 -9 96 -75q0 -33 -22.5 -50t-66.5 -17t-78 13v30q33 -13 52 -13q25 0 37.5 10t12.5 30q0 41 -80 50l36 70q-160 16 -248 119.5t-88 276.5q0 185 99.5 295t266.5 110q123 0 227 -30l15 -151h-37l-1 8q-12 68 -64 105.5t-135 37.5
q-114 0 -188 -104t-74 -266q0 -167 75.5 -270t197.5 -103q165 0 192 148l1 8h38z" />
    <glyph glyph-name="Egrave" unicode="&#xc8;" horiz-adv-x="606" 
d="M228 383v-258q0 -48 41 -67.5t145 -19.5h21q45 0 66.5 23t31.5 81l1 9h38l-15 -164q-93 7 -139 7q-48 0 -113 4q-64 2 -77 2h-190v30h9q49 0 65.5 20t16.5 79v498q0 63 -15.5 81.5t-66.5 18.5h-9v31h500l15 -141h-38l-1 10q-10 64 -37.5 78.5t-143.5 14.5h-105v-307h113
q78 0 99.5 13.5t21.5 61.5v8h38v-197h-38v8q0 43 -18 61q-14 15 -103 15h-113zM449 841h-95l-215 98h155z" />
    <glyph glyph-name="Eacute" unicode="&#xc9;" horiz-adv-x="606" 
d="M228 383v-258q0 -48 41 -67.5t145 -19.5h21q45 0 66.5 23t31.5 81l1 9h38l-15 -164q-93 7 -139 7q-48 0 -113 4q-64 2 -77 2h-190v30h9q49 0 65.5 20t16.5 79v498q0 63 -15.5 81.5t-66.5 18.5h-9v31h500l15 -141h-38l-1 10q-10 64 -37.5 78.5t-143.5 14.5h-105v-307h113
q78 0 99.5 13.5t21.5 61.5v8h38v-197h-38v8q0 43 -18 61q-14 15 -103 15h-113zM197 841l155 98h155l-215 -98h-95z" />
    <glyph glyph-name="Ecircumflex" unicode="&#xca;" horiz-adv-x="608" 
d="M228 384v-258q0 -49 41 -69q21 -10 57.5 -14.5t88.5 -4.5h21q45 0 67 23q11 12 19 32.5t13 49.5l1 9h38l-15 -165q-47 4 -81.5 5.5t-57.5 1.5q-24 0 -53 1t-61 3q-64 2 -78 2h-190v30h9q25 0 41 5t25 15q8 10 12 30t4 49v501q0 31 -3.5 51.5t-11.5 29.5q-17 19 -67 19h-9
v30h502l15 -141h-38l-2 11q-5 32 -14 51.5t-23 26.5t-49.5 10.5t-94.5 3.5h-106v-307h114q39 0 64.5 3t35.5 10q11 7 16.5 22t5.5 39v9h38v-198h-38v8q0 43 -18 61q-15 15 -104 15h-114zM169 959v-66h292v66h-292z" />
    <glyph glyph-name="Edieresis" unicode="&#xcb;" horiz-adv-x="606" 
d="M228 383v-258q0 -48 41 -67.5t145 -19.5h21q45 0 66.5 23t31.5 81l1 9h38l-15 -164q-93 7 -139 7q-48 0 -113 4q-64 2 -77 2h-190v30h9q49 0 65.5 20t16.5 79v498q0 63 -15.5 81.5t-66.5 18.5h-9v31h500l15 -141h-38l-1 10q-10 64 -37.5 78.5t-143.5 14.5h-105v-307h113
q78 0 99.5 13.5t21.5 61.5v8h38v-197h-38v8q0 43 -18 61q-14 15 -103 15h-113zM202 839q-21 0 -36 15t-15 36q0 22 15 36.5t36 14.5t36 -14.5t15 -36.5q0 -21 -15 -36t-36 -15zM410 839q-21 0 -36 15t-15 36q0 22 15 36.5t36 14.5q22 0 36.5 -14.5t14.5 -36.5
q0 -21 -14.5 -36t-36.5 -15z" />
    <glyph glyph-name="Igrave" unicode="&#xcc;" horiz-adv-x="356" 
d="M318 0h-280v30h8q51 0 67 19t16 80v500q0 60 -16 79t-67 19h-8v31h280v-31h-7q-51 0 -67 -19t-16 -79v-500q0 -61 16 -80t67 -19h7v-30zM319 841h-95l-216 98h156z" />
    <glyph glyph-name="Iacute" unicode="&#xcd;" horiz-adv-x="356" 
d="M318 0h-280v30h8q51 0 67 19t16 80v500q0 60 -16 79t-67 19h-8v31h280v-31h-7q-51 0 -67 -19t-16 -79v-500q0 -61 16 -80t67 -19h7v-30zM87 841l156 98h155l-216 -98h-95z" />
    <glyph glyph-name="Icircumflex" unicode="&#xce;" horiz-adv-x="357" 
d="M319 0h-281v30h8q26 0 42.5 5t24.5 14q16 19 16 80v502q0 62 -16 79q-15 20 -67 20h-8v30h281v-30h-7q-52 0 -68 -20q-16 -19 -16 -79v-502q0 -60 16 -80q8 -9 25 -14t43 -5h7v-30zM46 959v-66h272v66h-272z" />
    <glyph glyph-name="Idieresis" unicode="&#xcf;" horiz-adv-x="356" 
d="M318 0h-280v30h8q51 0 67 19t16 80v500q0 60 -16 79t-67 19h-8v31h280v-31h-7q-51 0 -67 -19t-16 -79v-500q0 -61 16 -80t67 -19h7v-30zM75 839q-22 0 -37 15t-15 36q0 22 15 36.5t37 14.5q21 0 35.5 -14.5t14.5 -36.5q0 -21 -14.5 -36t-35.5 -15zM283 839q-21 0 -36 15
t-15 36q0 22 15 36.5t36 14.5t36 -14.5t15 -36.5q0 -21 -15 -36t-36 -15z" />
    <glyph glyph-name="Eth" unicode="&#xd0;" horiz-adv-x="811" 
d="M42 0v30h9q50 0 65.5 19t15.5 79v251h-90v38h90v211q0 61 -15.5 80t-65.5 19h-9v31h281q151 0 209 -13t114 -58q123 -98 123 -278q0 -173 -103 -296q-55 -64 -128.5 -88.5t-214.5 -24.5h-281zM231 727v-310h136v-38h-136v-251q0 -94 163 -94q121 0 193 92t72 247
q0 151 -87 251q-51 59 -113.5 81t-175.5 22h-52z" />
    <glyph glyph-name="Ntilde" unicode="&#xd1;" horiz-adv-x="803" 
d="M197 588v-459q0 -61 16 -80t66 -19h9v-30h-235v30h6q50 0 65.5 19t15.5 80v521l-15 20q-42 57 -78 57h-9v31h145l454 -557v428q0 60 -16 79t-67 19h-8v31h234v-31h-9q-50 0 -66 -19t-16 -79v-651zM273 841h-38q6 44 35 71t70 27q22 0 65 -14l41 -13q33 -11 54 -11
q39 0 53 38h38q-6 -44 -33.5 -71t-68.5 -27q-29 0 -66 14l-36 13q-29 11 -55 11q-41 0 -59 -38z" />
    <glyph glyph-name="Ograve" unicode="&#xd2;" horiz-adv-x="803" 
d="M401 -22q-158 0 -258.5 112.5t-100.5 288.5t100.5 288.5t258.5 112.5q143 0 234 -86q58 -54 92 -139t34 -176q0 -176 -100.5 -288.5t-259.5 -112.5zM401 8q108 0 177 104t69 267q0 162 -69 266.5t-177 104.5q-107 0 -176.5 -104.5t-69.5 -266.5q0 -163 69 -267t177 -104z
M556 841h-95l-216 98h155z" />
    <glyph glyph-name="Oacute" unicode="&#xd3;" horiz-adv-x="803" 
d="M401 -22q-158 0 -258.5 112.5t-100.5 288.5t100.5 288.5t258.5 112.5q143 0 234 -86q58 -54 92 -139t34 -176q0 -176 -100.5 -288.5t-259.5 -112.5zM401 8q108 0 177 104t69 267q0 162 -69 266.5t-177 104.5q-107 0 -176.5 -104.5t-69.5 -266.5q0 -163 69 -267t177 -104z
M268 841l155 98h156l-216 -98h-95z" />
    <glyph glyph-name="Ocircumflex" unicode="&#xd4;" horiz-adv-x="806" 
d="M403 -22q-159 0 -260 112q-51 56 -76 128.5t-25 161.5t25 161.5t76 128.5q101 113 260 113q143 0 234 -86q30 -28 53 -63t40 -77q17 -43 25.5 -87t8.5 -90q0 -175 -102 -290q-101 -112 -259 -112zM403 8q108 0 177 104q70 105 70 268q0 81 -17.5 148t-52.5 120
q-69 105 -177 105t-178 -105q-69 -106 -69 -268q0 -82 17 -148.5t52 -119.5t79.5 -78.5t98.5 -25.5zM257 959v-66h291v66h-291z" />
    <glyph glyph-name="Otilde" unicode="&#xd5;" horiz-adv-x="803" 
d="M401 -22q-158 0 -258.5 112.5t-100.5 288.5t100.5 288.5t258.5 112.5q143 0 234 -86q58 -54 92 -139t34 -176q0 -176 -100.5 -288.5t-259.5 -112.5zM401 8q108 0 177 104t69 267q0 162 -69 266.5t-177 104.5q-107 0 -176.5 -104.5t-69.5 -266.5q0 -163 69 -267t177 -104z
M262 841h-38q6 44 35 71t70 27q23 0 66 -14l41 -13q33 -11 54 -11q38 0 52 38h39q-6 -44 -34 -71t-69 -27q-29 0 -66 14l-36 13q-29 11 -55 11q-41 0 -59 -38z" />
    <glyph glyph-name="Odieresis" unicode="&#xd6;" horiz-adv-x="803" 
d="M401 -22q-158 0 -258.5 112.5t-100.5 288.5t100.5 288.5t258.5 112.5q143 0 234 -86q58 -54 92 -139t34 -176q0 -176 -100.5 -288.5t-259.5 -112.5zM401 8q108 0 177 104t69 267q0 162 -69 266.5t-177 104.5q-107 0 -176.5 -104.5t-69.5 -266.5q0 -163 69 -267t177 -104z
M298 839q-22 0 -36.5 15t-14.5 36q0 22 14.5 36.5t36.5 14.5q21 0 36 -14.5t15 -36.5q0 -21 -15 -36t-36 -15zM506 839q-21 0 -36 15t-15 36q0 22 15 36.5t36 14.5t36 -14.5t15 -36.5q0 -21 -15 -36t-36 -15z" />
    <glyph glyph-name="multiply" unicode="&#xd7;" horiz-adv-x="667" 
d="M606 34l-40 -34l-233 235l-236 -235l-36 39l233 234l-233 234l37 38l235 -236l236 236l37 -37l-236 -235z" />
    <glyph glyph-name="Oslash" unicode="&#xd8;" horiz-adv-x="803" 
d="M90 -22h-48l96 116q-96 125 -96 283q0 178 101 290.5t261 112.5q138 0 236 -92l74 88h47l-95 -117q95 -125 95 -279q0 -176 -101 -289t-258 -113q-140 0 -238 87zM192 158l400 473q-75 119 -191 119q-113 0 -181.5 -100.5t-68.5 -266.5q0 -127 41 -225zM612 595
l-401 -474q80 -113 190 -113q112 0 181 101.5t69 265.5q0 125 -39 220z" />
    <glyph glyph-name="Ugrave" unicode="&#xd9;" horiz-adv-x="780" 
d="M26 727v31h280v-31h-8q-51 0 -67 -19t-16 -79v-340q0 -157 55 -219q54 -62 149 -62q86 0 134 59.5t49 197.5v364q0 60 -16 79t-67 19h-8v31h242v-31h-6q-52 0 -68 -19t-16 -79v-324q0 -118 -13.5 -168t-57.5 -91q-72 -68 -210 -68q-117 0 -186 54q-48 37 -63.5 89
t-15.5 168v340q0 60 -16.5 79t-67.5 19h-7zM567 841h-95l-216 98h156z" />
    <glyph glyph-name="Uacute" unicode="&#xda;" horiz-adv-x="780" 
d="M26 727v31h280v-31h-8q-51 0 -67 -19t-16 -79v-340q0 -157 55 -219q54 -62 149 -62q86 0 134 59.5t49 197.5v364q0 60 -16 79t-67 19h-8v31h242v-31h-6q-52 0 -68 -19t-16 -79v-324q0 -118 -13.5 -168t-57.5 -91q-72 -68 -210 -68q-117 0 -186 54q-48 37 -63.5 89
t-15.5 168v340q0 60 -16.5 79t-67.5 19h-7zM294 841l155 98h155l-215 -98h-95z" />
    <glyph glyph-name="Ucircumflex" unicode="&#xdb;" horiz-adv-x="783" 
d="M26 730v30h281v-30h-8q-50 0 -67 -20q-16 -18 -16 -79v-341q0 -158 54 -219q56 -63 151 -63q86 0 134 60q24 29 36.5 78.5t12.5 119.5v365q0 60 -16 79q-16 20 -68 20h-7v30h243v-30h-6q-53 0 -69 -20q-16 -17 -16 -79v-325q0 -118 -14 -169q-13 -50 -57 -91
q-72 -68 -211 -68q-59 0 -105.5 13.5t-81.5 40.5q-24 19 -39.5 41.5t-23.5 48.5q-8 25 -12 67.5t-4 100.5v341q0 61 -16 79q-17 20 -68 20h-7zM257 959v-66h291v66h-291z" />
    <glyph glyph-name="Udieresis" unicode="&#xdc;" horiz-adv-x="780" 
d="M26 727v31h280v-31h-8q-51 0 -67 -19t-16 -79v-340q0 -157 55 -219q54 -62 149 -62q86 0 134 59.5t49 197.5v364q0 60 -16 79t-67 19h-8v31h242v-31h-6q-52 0 -68 -19t-16 -79v-324q0 -118 -13.5 -168t-57.5 -91q-72 -68 -210 -68q-117 0 -186 54q-48 37 -63.5 89
t-15.5 168v340q0 60 -16.5 79t-67.5 19h-7zM309 839q-21 0 -36 15t-15 36q0 22 15 36.5t36 14.5t36 -14.5t15 -36.5q0 -21 -15 -36t-36 -15zM517 839q-21 0 -36 15t-15 36q0 22 15 36.5t36 14.5q22 0 36.5 -14.5t14.5 -36.5q0 -21 -14.5 -36t-36.5 -15z" />
    <glyph glyph-name="Yacute" unicode="&#xdd;" horiz-adv-x="644" 
d="M276 355l-161 275q-57 97 -108 97h-7v31h242v-31h-10q-35 0 -35 -24q0 -23 29 -73l132 -231l127 233q27 50 27 66q0 26 -40 29h-11v31h183v-31h-11q-36 0 -54 -16.5t-54 -81.5l-150 -274v-226q0 -62 18.5 -80.5t79.5 -18.5h7v-30h-309v30h8q60 0 78.5 18.5t18.5 80.5v226
zM204 841l155 98h156l-216 -98h-95z" />
    <glyph glyph-name="Thorn" unicode="&#xde;" horiz-adv-x="606" 
d="M318 0h-280v30h8q51 0 67 19t16 80v500q0 60 -16 79t-67 19h-8v31h280v-31h-7q-51 0 -67 -19t-16 -79v-30h96q90 0 129.5 -9t68.5 -35q58 -51 58 -143q0 -118 -84.5 -187.5t-228.5 -69.5h-39v-26q0 -61 16 -80t67 -19h7v-30zM228 186h28q109 0 163.5 53t54.5 159
q0 93 -44.5 131.5t-151.5 38.5h-50v-382z" />
    <glyph glyph-name="germandbls" unicode="&#xdf;" horiz-adv-x="648" 
d="M345 10l-12 115h35l1 -9q16 -101 89 -101q34 0 59 29t25 68q0 65 -119 149l-45 31q-109 77 -109 142q0 40 42 93l21 27q66 83 66 136q0 34 -30 58.5t-70 24.5q-49 0 -71 -35.5t-22 -116.5v-488q0 -62 10.5 -82.5t41.5 -20.5h8v-30h-242v30h9q51 0 66.5 19t15.5 80v448
q0 79 14.5 117t55.5 70q51 39 134 39q78 0 124.5 -30t46.5 -80q0 -51 -67 -103l-20 -15l-27 -23q-42 -36 -42 -65q0 -45 93 -114l54 -40q87 -64 116 -104.5t29 -94.5q0 -70 -43 -109t-120 -39q-59 0 -117 24z" />
    <glyph glyph-name="agrave" unicode="&#xe0;" horiz-adv-x="591" 
d="M378 96q-43 -55 -91 -82.5t-101 -27.5q-54 0 -89.5 36t-35.5 91q0 61 56.5 103.5t186.5 79.5l67 20v77q0 50 -6 69.5t-25 33.5q-30 22 -73 22q-45 0 -67.5 -19t-22.5 -58v-24l-105 -34v15q0 59 68 111q67 52 166 52q83 0 119 -34q37 -34 37 -110v-232q0 -88 16 -118
q15 -29 62 -29q14 0 32 3v-29q-48 -26 -95 -26q-41 0 -66 27.5t-33 82.5zM371 284l-28 -9q-113 -36 -148.5 -64.5t-35.5 -82.5q0 -35 24.5 -60.5t56.5 -25.5q55 0 101 51q30 33 30 93v98zM363 629h-42l-208 159h107z" />
    <glyph glyph-name="aacute" unicode="&#xe1;" horiz-adv-x="591" 
d="M378 96q-43 -55 -91 -82.5t-101 -27.5q-54 0 -89.5 36t-35.5 91q0 61 56.5 103.5t186.5 79.5l67 20v77q0 50 -6 69.5t-25 33.5q-30 22 -73 22q-45 0 -67.5 -19t-22.5 -58v-24l-105 -34v15q0 59 68 111q67 52 166 52q83 0 119 -34q37 -34 37 -110v-232q0 -88 16 -118
q15 -29 62 -29q14 0 32 3v-29q-48 -26 -95 -26q-41 0 -66 27.5t-33 82.5zM371 284l-28 -9q-113 -36 -148.5 -64.5t-35.5 -82.5q0 -35 24.5 -60.5t56.5 -25.5q55 0 101 51q30 33 30 93v98zM342 788h107l-208 -159h-42z" />
    <glyph glyph-name="acircumflex" unicode="&#xe2;" horiz-adv-x="593" 
d="M154 763v-65h292v65h-292zM380 97q-87 -112 -194 -112q-27 0 -49 9.5t-40 27.5q-36 36 -36 91q0 61 57 104q28 22 74.5 41.5t112.5 38.5l67 20v77q0 51 -6 70q-2 10 -8.5 18t-16.5 16q-15 11 -33.5 16.5t-39.5 5.5q-91 0 -91 -77v-25l-105 -33v14q0 30 17 58t51 54
q68 51 167 51q42 0 71.5 -8.5t48.5 -24.5q36 -34 36 -111v-232q0 -45 4.5 -74.5t11.5 -43.5q7 -15 23.5 -22.5t38.5 -7.5q15 0 33 3v-29q-49 -27 -96 -27q-83 0 -98 112zM372 285l-28 -9q-57 -18 -94 -34.5t-55 -30.5t-26.5 -34.5t-8.5 -47.5q0 -36 24 -61q12 -14 26.5 -20
t30.5 -6q56 0 101 51q15 17 22.5 40.5t7.5 53.5v98z" />
    <glyph glyph-name="atilde" unicode="&#xe3;" horiz-adv-x="591" 
d="M378 96q-43 -55 -91 -82.5t-101 -27.5q-54 0 -89.5 36t-35.5 91q0 61 56.5 103.5t186.5 79.5l67 20v77q0 50 -6 69.5t-25 33.5q-30 22 -73 22q-45 0 -67.5 -19t-22.5 -58v-24l-105 -34v15q0 59 68 111q67 52 166 52q83 0 119 -34q37 -34 37 -110v-232q0 -88 16 -118
q15 -29 62 -29q14 0 32 3v-29q-48 -26 -95 -26q-41 0 -66 27.5t-33 82.5zM371 284l-28 -9q-113 -36 -148.5 -64.5t-35.5 -82.5q0 -35 24.5 -60.5t56.5 -25.5q55 0 101 51q30 33 30 93v98zM149 629h-31q0 58 23 91.5t62 33.5q27 0 57 -19l21 -13q39 -25 61 -25q42 0 48 57h31
q0 -59 -23 -92t-63 -33q-29 0 -66 23l-21 14q-31 20 -49 20q-44 0 -50 -57z" />
    <glyph glyph-name="adieresis" unicode="&#xe4;" horiz-adv-x="591" 
d="M378 96q-43 -55 -91 -82.5t-101 -27.5q-54 0 -89.5 36t-35.5 91q0 61 56.5 103.5t186.5 79.5l67 20v77q0 50 -6 69.5t-25 33.5q-30 22 -73 22q-45 0 -67.5 -19t-22.5 -58v-24l-105 -34v15q0 59 68 111q67 52 166 52q83 0 119 -34q37 -34 37 -110v-232q0 -88 16 -118
q15 -29 62 -29q14 0 32 3v-29q-48 -26 -95 -26q-41 0 -66 27.5t-33 82.5zM371 284l-28 -9q-113 -36 -148.5 -64.5t-35.5 -82.5q0 -35 24.5 -60.5t56.5 -25.5q55 0 101 51q30 33 30 93v98zM198 629q-22 0 -37 15t-15 36t15 36t37 15q21 0 36 -15t15 -36t-15 -36t-36 -15z
M406 629q-21 0 -36 15t-15 36t15 36t36 15t36 -15t15 -36t-15 -36t-36 -15z" />
    <glyph glyph-name="aring" unicode="&#xe5;" horiz-adv-x="591" 
d="M378 96q-43 -55 -91 -82.5t-101 -27.5q-54 0 -89.5 36t-35.5 91q0 61 56.5 103.5t186.5 79.5l67 20v77q0 50 -6 69.5t-25 33.5q-30 22 -73 22q-45 0 -67.5 -19t-22.5 -58v-24l-105 -34v15q0 59 68 111q67 52 166 52q83 0 119 -34q37 -34 37 -110v-232q0 -88 16 -118
q15 -29 62 -29q14 0 32 3v-29q-48 -26 -95 -26q-41 0 -66 27.5t-33 82.5zM371 284l-28 -9q-113 -36 -148.5 -64.5t-35.5 -82.5q0 -35 24.5 -60.5t56.5 -25.5q55 0 101 51q30 33 30 93v98zM281 698q22 0 37.5 15.5t15.5 37.5t-15.5 37.5t-37.5 15.5t-37.5 -15.5t-15.5 -37.5
t15.5 -37.5t37.5 -15.5zM281 668q-34 0 -58.5 24.5t-24.5 58.5q0 35 24.5 59t58.5 24q35 0 59 -24t24 -59q0 -34 -24 -58.5t-59 -24.5z" />
    <glyph glyph-name="ae" unicode="&#xe6;" horiz-adv-x="894" 
d="M849 92v-46q-108 -61 -216 -61q-78 0 -136 34.5t-96 103.5q-26 -60 -86.5 -98.5t-125.5 -38.5q-56 0 -92 35t-36 92q0 61 56.5 103.5t186.5 79.5l67 20v77q0 50 -6 69.5t-25 33.5q-30 22 -73 22q-45 0 -67.5 -19t-22.5 -58v-24l-105 -34v15q0 59 68 111q67 52 174 52
q51 0 86 -16t52 -47q66 63 166 63q104 0 161 -66.5t57 -187.5v-15h-374q-1 -17 -1 -23q0 -96 60.5 -160t149.5 -64q73 0 178 47zM371 283l-28 -9q-113 -36 -148.5 -64t-35.5 -83q0 -34 24.5 -60t56.5 -26q55 0 101 51q30 33 30 94v97zM464 322h101q110 0 138.5 11t28.5 52
q0 64 -31.5 104.5t-80.5 40.5q-62 0 -104 -56.5t-52 -151.5z" />
    <glyph glyph-name="ccedilla" unicode="&#xe7;" horiz-adv-x="542" 
d="M503 68v-47q-104 -35 -177 -35l-30 -55q96 -9 96 -75q0 -33 -22.5 -50t-66.5 -17q-45 0 -78 13v30q32 -13 51 -13q26 0 38.5 10t12.5 30q0 41 -80 50l41 77q-118 14 -182 84t-64 182q0 137 83 223t217 86q103 0 182 -62l-68 -75q-29 45 -73.5 73.5t-86.5 28.5
q-66 0 -107.5 -65.5t-41.5 -169.5q0 -117 56 -185t153 -68q75 0 147 30z" />
    <glyph glyph-name="egrave" unicode="&#xe8;" horiz-adv-x="572" 
d="M526 92v-46q-107 -60 -207 -60q-121 0 -199 80.5t-78 205.5q0 124 74.5 206.5t187.5 82.5q102 0 158.5 -67t56.5 -187v-15h-374q-1 -17 -1 -23q0 -95 60 -159.5t149 -64.5q85 0 173 47zM146 322h102q109 0 138 11t29 52q0 64 -31.5 104.5t-81.5 40.5q-62 0 -104 -56.5
t-52 -151.5zM387 629h-42l-208 159h107z" />
    <glyph glyph-name="eacute" unicode="&#xe9;" horiz-adv-x="572" 
d="M526 92v-46q-107 -60 -207 -60q-121 0 -199 80.5t-78 205.5q0 124 74.5 206.5t187.5 82.5q102 0 158.5 -67t56.5 -187v-15h-374q-1 -17 -1 -23q0 -95 60 -159.5t149 -64.5q85 0 173 47zM146 322h102q109 0 138 11t29 52q0 64 -31.5 104.5t-81.5 40.5q-62 0 -104 -56.5
t-52 -151.5zM379 788h107l-208 -159h-42z" />
    <glyph glyph-name="ecircumflex" unicode="&#xea;" horiz-adv-x="574" 
d="M159 763v-65h301v65h-301zM528 92v-46q-53 -31 -105 -46t-103 -15q-122 0 -200 81q-40 41 -59 92.5t-19 114.5q0 124 75 207q74 82 188 82q103 0 158 -67q57 -66 57 -187v-15h-375v-24q0 -95 60 -159t149 -64q86 0 174 46zM147 323h101q55 0 90 2.5t49 8.5q29 10 29 53
q0 64 -31 104q-32 41 -82 41q-61 0 -105 -57q-42 -56 -51 -152z" />
    <glyph glyph-name="edieresis" unicode="&#xeb;" horiz-adv-x="572" 
d="M526 92v-46q-107 -60 -207 -60q-121 0 -199 80.5t-78 205.5q0 124 74.5 206.5t187.5 82.5q102 0 158.5 -67t56.5 -187v-15h-374q-1 -17 -1 -23q0 -95 60 -159.5t149 -64.5q85 0 173 47zM146 322h102q109 0 138 11t29 52q0 64 -31.5 104.5t-81.5 40.5q-62 0 -104 -56.5
t-52 -151.5zM209 629q-21 0 -36 15t-15 36t15 36t36 15t36 -15t15 -36t-15 -36t-36 -15zM417 629q-21 0 -36 15t-15 36t15 36t36 15t36 -15t15 -36t-15 -36t-36 -15z" />
    <glyph glyph-name="igrave" unicode="&#xec;" horiz-adv-x="341" 
d="M220 558v-429q0 -61 16 -80t67 -19h8v-30h-273v30h10q50 0 65.5 19t15.5 80v214q0 74 -8.5 91t-57.5 39l-25 12v7zM262 629h-42l-208 159h107z" />
    <glyph glyph-name="iacute" unicode="&#xed;" horiz-adv-x="341" 
d="M220 558v-429q0 -61 16 -80t67 -19h8v-30h-273v30h10q50 0 65.5 19t15.5 80v214q0 74 -8.5 91t-57.5 39l-25 12v7zM238 788h107l-208 -159h-42z" />
    <glyph glyph-name="icircumflex" unicode="&#xee;" horiz-adv-x="342" 
d="M221 560v-431q0 -61 16 -80q8 -9 25 -14t43 -5h8v-30h-274v30h10q25 0 41 5t24 14q16 19 16 80v215q0 74 -9 91t-57 39l-25 13v7zM31 763v-65h272v65h-272z" />
    <glyph glyph-name="idieresis" unicode="&#xef;" horiz-adv-x="341" 
d="M220 558v-429q0 -61 16 -80t67 -19h8v-30h-273v30h10q50 0 65.5 19t15.5 80v214q0 74 -8.5 91t-57.5 39l-25 12v7zM56 629q-22 0 -37 15t-15 36t15 36t37 15q21 0 35.5 -15t14.5 -36t-14.5 -36t-35.5 -15zM264 629q-21 0 -36 15t-15 36t15 36t36 15t36 -15t15 -36
t-15 -36t-36 -15z" />
    <glyph glyph-name="eth" unicode="&#xf0;" horiz-adv-x="633" 
d="M450 502q-41 110 -131 181l-126 -111l-26 29l118 103q-78 46 -174 46h-20v38h22q127 0 225 -38l97 86l24 -30l-84 -73q216 -165 216 -422q0 -145 -76 -235t-196 -90q-117 0 -197 78t-80 192q0 116 78.5 195t192.5 79q68 0 137 -28zM314 15q78 0 124.5 68t46.5 180
t-45.5 174.5t-125.5 62.5q-74 0 -120.5 -66.5t-46.5 -173.5q0 -109 46.5 -177t120.5 -68z" />
    <glyph glyph-name="ntilde" unicode="&#xf1;" horiz-adv-x="697" 
d="M220 417v-288q0 -61 16 -80t69 -19h6v-30h-273v30h9q50 0 66 19t16 80v220q0 67 -10 86t-53 38l-28 12v7l182 68v-113q58 57 110.5 85.5t98.5 28.5q67 0 110 -46q44 -46 44 -169v-217q0 -61 16.5 -80t67.5 -19h7v-30h-272v30h8q51 0 67 19t16 80v219q0 72 -24 104.5
t-77 32.5q-39 0 -82 -17t-90 -51zM235 629h-30q0 58 22.5 91.5t61.5 33.5q27 0 58 -19l20 -13q39 -25 61 -25q43 0 49 57h31q0 -59 -23 -92t-64 -33q-28 0 -66 23l-21 14q-30 20 -48 20q-45 0 -51 -57z" />
    <glyph glyph-name="ograve" unicode="&#xf2;" horiz-adv-x="636" 
d="M318 -14q-121 0 -198.5 80.5t-77.5 206.5q0 125 77.5 206.5t198.5 81.5t199 -81.5t78 -206.5q0 -126 -78 -206.5t-199 -80.5zM318 19q75 0 121 70t46 184t-46 183.5t-121 69.5t-121 -69.5t-46 -183.5t46 -184t121 -70zM406 629h-42l-208 159h107z" />
    <glyph glyph-name="oacute" unicode="&#xf3;" horiz-adv-x="636" 
d="M318 -14q-121 0 -198.5 80.5t-77.5 206.5q0 125 77.5 206.5t198.5 81.5t199 -81.5t78 -206.5q0 -126 -78 -206.5t-199 -80.5zM318 19q75 0 121 70t46 184t-46 183.5t-121 69.5t-121 -69.5t-46 -183.5t46 -184t121 -70zM385 788h107l-208 -159h-42z" />
    <glyph glyph-name="ocircumflex" unicode="&#xf4;" horiz-adv-x="638" 
d="M193 763v-65h272v65h-272zM319 -15q-121 0 -199 81q-40 41 -59 92.5t-19 115.5q0 63 19 114.5t59 92.5q39 41 88.5 61t110.5 20q121 0 199 -81q79 -81 79 -207q0 -125 -79 -208q-79 -81 -199 -81zM319 19q76 0 121 70q23 36 35 81.5t12 103.5q0 115 -47 184
q-44 70 -121 70q-75 0 -121 -70q-23 -35 -34.5 -80.5t-11.5 -103.5q0 -115 46 -185q47 -70 121 -70z" />
    <glyph glyph-name="otilde" unicode="&#xf5;" horiz-adv-x="636" 
d="M318 -14q-121 0 -198.5 80.5t-77.5 206.5q0 125 77.5 206.5t198.5 81.5t199 -81.5t78 -206.5q0 -126 -78 -206.5t-199 -80.5zM318 19q75 0 121 70t46 184t-46 183.5t-121 69.5t-121 -69.5t-46 -183.5t46 -184t121 -70zM197 629h-30q0 58 22.5 91.5t61.5 33.5q27 0 58 -19
l20 -13q39 -25 61 -25q43 0 48 57h32q0 -59 -23 -92t-64 -33q-29 0 -66 23l-21 14q-30 20 -48 20q-45 0 -51 -57z" />
    <glyph glyph-name="odieresis" unicode="&#xf6;" horiz-adv-x="636" 
d="M318 -14q-121 0 -198.5 80.5t-77.5 206.5q0 125 77.5 206.5t198.5 81.5t199 -81.5t78 -206.5q0 -126 -78 -206.5t-199 -80.5zM318 19q75 0 121 70t46 184t-46 183.5t-121 69.5t-121 -69.5t-46 -183.5t46 -184t121 -70zM214 629q-21 0 -36 15t-15 36t15 36t36 15t36 -15
t15 -36t-15 -36t-36 -15zM422 629q-21 0 -35.5 15t-14.5 36t14.5 36t35.5 15q22 0 37 -15t15 -36t-15 -36t-37 -15z" />
    <glyph glyph-name="divide" unicode="&#xf7;" horiz-adv-x="667" 
d="M606 299v-53h-545v53h545zM333 352q-27 0 -45.5 19t-18.5 46t18.5 45.5t45.5 18.5t45.5 -18.5t18.5 -45.5t-18.5 -46t-45.5 -19zM333 64q-27 0 -45.5 19t-18.5 46t18.5 45.5t45.5 18.5t45.5 -18.5t18.5 -45.5t-18.5 -46t-45.5 -19z" />
    <glyph glyph-name="oslash" unicode="&#xf8;" horiz-adv-x="636" 
d="M90 -14h-48l73 84q-73 84 -73 203q0 126 78 207t199 81q97 0 175 -59l51 59h50l-74 -85q74 -92 74 -204q0 -123 -78.5 -204.5t-196.5 -81.5q-102 0 -177 58zM173 139l273 310q-49 77 -126 77q-76 0 -122 -69.5t-46 -185.5q0 -58 21 -132zM463 409l-272 -309
q52 -81 129 -81q74 0 119.5 70t45.5 183q0 81 -22 137z" />
    <glyph glyph-name="ugrave" unicode="&#xf9;" horiz-adv-x="689" 
d="M478 92q-50 -53 -101.5 -79.5t-105.5 -26.5q-81 0 -119 51q-38 52 -38 163v143q0 73 -9.5 92t-53.5 38l-28 12v7l182 69v-329q0 -106 22.5 -140.5t77.5 -34.5q45 0 80 14.5t93 57.5v216q0 71 -10 90t-53 38l-28 12v7l181 69v-432q0 -41 19 -55t72 -14h4v-30l-185 -44v106
zM401 629h-42l-208 159h107z" />
    <glyph glyph-name="uacute" unicode="&#xfa;" horiz-adv-x="689" 
d="M478 92q-50 -53 -101.5 -79.5t-105.5 -26.5q-81 0 -119 51q-38 52 -38 163v143q0 73 -9.5 92t-53.5 38l-28 12v7l182 69v-329q0 -106 22.5 -140.5t77.5 -34.5q45 0 80 14.5t93 57.5v216q0 71 -10 90t-53 38l-28 12v7l181 69v-432q0 -41 19 -55t72 -14h4v-30l-185 -44v106
zM400 788h107l-208 -159h-42z" />
    <glyph glyph-name="ucircumflex" unicode="&#xfb;" horiz-adv-x="692" 
d="M188 763v-65h292v65h-292zM479 93q-99 -108 -207 -108q-81 0 -120 52q-19 26 -28.5 67t-9.5 97v143q0 73 -9 92q-10 19 -54 38l-28 13v7l182 68v-329q0 -106 23 -141t78 -35q45 0 80 15q18 7 41 21t52 36v217q0 71 -10 90q-5 10 -18 19t-35 19l-28 13v7l182 68v-433
q0 -21 5 -34t14 -21q20 -14 72 -14h4v-30l-186 -45v108z" />
    <glyph glyph-name="udieresis" unicode="&#xfc;" horiz-adv-x="689" 
d="M478 92q-50 -53 -101.5 -79.5t-105.5 -26.5q-81 0 -119 51q-38 52 -38 163v143q0 73 -9.5 92t-53.5 38l-28 12v7l182 69v-329q0 -106 22.5 -140.5t77.5 -34.5q45 0 80 14.5t93 57.5v216q0 71 -10 90t-53 38l-28 12v7l181 69v-432q0 -41 19 -55t72 -14h4v-30l-185 -44v106
zM239 629q-21 0 -36 15t-15 36t15 36t36 15t36 -15t15 -36t-15 -36t-36 -15zM447 629q-21 0 -36 15t-15 36t15 36t36 15q22 0 37 -15t15 -36t-15 -36t-37 -15z" />
    <glyph glyph-name="yacute" unicode="&#xfd;" horiz-adv-x="636" 
d="M310 17l-192 400q-31 61 -47.5 79.5t-40.5 18.5h-7v30h227v-30h-9q-48 0 -48 -24q0 -16 28 -74l138 -295l140 295q24 50 24 66q0 32 -48 32h-5v30h167v-30h-7q-25 0 -41 -18.5t-46 -80.5l-222 -459q-33 -70 -52.5 -96t-59.5 -54q-56 -33 -122 -33q-37 0 -79 11l48 85
q36 -9 65 -9q57 0 100 30t71 91zM407 788h107l-208 -159h-42z" />
    <glyph glyph-name="thorn" unicode="&#xfe;" horiz-adv-x="693" 
d="M212 3v-86q0 -60 15.5 -79t65.5 -19h6v-30h-273v30h9q53 0 69.5 19t16.5 79v641q0 70 -10 89t-55 38l-30 12v8l186 68v-314q55 51 106.5 76.5t99.5 25.5q98 0 162 -76.5t64 -194.5q0 -136 -84 -220t-220 -84q-31 0 -63 4.5t-65 12.5zM212 417v-321q28 -35 71.5 -56.5
t85.5 -21.5q77 0 126.5 66t49.5 168t-50 165.5t-130 63.5q-36 0 -74.5 -16t-78.5 -48z" />
    <glyph glyph-name="ydieresis" unicode="&#xff;" horiz-adv-x="636" 
d="M310 17l-192 400q-31 61 -47.5 79.5t-40.5 18.5h-7v30h227v-30h-9q-48 0 -48 -24q0 -16 28 -74l138 -295l140 295q24 50 24 66q0 32 -48 32h-5v30h167v-30h-7q-25 0 -41 -18.5t-46 -80.5l-222 -459q-33 -70 -52.5 -96t-59.5 -54q-56 -33 -122 -33q-37 0 -79 11l48 85
q36 -9 65 -9q57 0 100 30t71 91zM262 629q-22 0 -37 15t-15 36t15 36t37 15q21 0 36 -15t15 -36t-15 -36t-36 -15zM470 629q-21 0 -36 15t-15 36t15 36t36 15t36 -15t15 -36t-15 -36t-36 -15z" />
    <glyph glyph-name="FL358" unicode="&#xe038;" horiz-adv-x="278" 
d="M116 717h99v-236l-24 -310h-50l-25 310v236zM116 102h97v-102h-97v102z" />
    <glyph glyph-name="FL359" unicode="&#xe039;" horiz-adv-x="355" 
d="M296 717l-15 -287h-59l-15 287h89zM128 717l-14 -287h-59l-15 287h88z" />
    <glyph glyph-name="FL360" unicode="&#xe03a;" 
d="M15 274h113l46 168h-113l15 57h113l59 218h72l-59 -218h108l60 218h72l-59 -218h113l-15 -57h-113l-47 -168h114l-15 -57h-112l-60 -217h-72l59 217h-109l-58 -217h-73l59 217h-113zM308 274l46 168h-108l-45 -168h107z" />
    <glyph glyph-name="FL361" unicode="&#xe03b;" 
d="M414 112q16 29 16 68q0 61 -45 92q-26 19 -87 36v-257q84 4 116 61zM251 408v230q-64 -3 -91 -39.5t-27 -76.5q0 -48 32 -75.5t86 -38.5zM252 710v65h46v-64q98 -6 150 -56.5t54 -133.5h-85q-4 37 -21 63q-30 50 -98 52v-237q114 -32 154 -60q66 -46 66 -135
q0 -130 -84 -185q-47 -30 -136 -40v-94h-46v94q-142 10 -193 101q-28 49 -28 133h87q4 -67 21 -98q30 -55 112 -62v266q-105 20 -155.5 67t-50.5 130q0 74 54.5 133.5t152.5 60.5z" />
    <glyph glyph-name="FL362" unicode="&#xe03c;" horiz-adv-x="889" 
d="M852 170q0 -70 -50 -120t-120 -50q-71 0 -121 50t-50 120t50 120t121 50q70 0 120 -50t50 -120zM611 696h54l-391 -714h-54zM303 508q0 41 -29.5 70.5t-71.5 29.5q-41 0 -70.5 -29t-29.5 -71t29.5 -71.5t70.5 -29.5q42 0 71.5 29.5t29.5 71.5zM373 508q0 -70 -50 -120
t-121 -50q-70 0 -120 50t-50 120t50 120t120 50q71 0 121 -50t50 -120zM782 170q0 41 -29.5 71t-70.5 30q-42 0 -71.5 -30t-29.5 -71q0 -42 29.5 -71.5t71.5 -29.5q41 0 70.5 29.5t29.5 71.5z" />
    <glyph glyph-name="FL363" unicode="&#xe03d;" horiz-adv-x="667" 
d="M350 492q28 33 28 73q0 32 -21 55t-56 23q-54 0 -75 -36q-11 -19 -11 -41q0 -29 16.5 -56.5t54.5 -71.5q46 33 64 54zM417 141l-163 198q-68 -46 -89 -70q-33 -37 -33 -90q0 -57 42 -87.5t89 -30.5q54 0 93.5 24.5t60.5 55.5zM129 556q0 69 47 114.5t126 45.5
q74 0 116 -42.5t42 -101.5q0 -69 -43 -120q-25 -31 -85 -70l131 -156q13 39 18 58t11 54h83q-8 -69 -33 -132t-25 -51l128 -155h-114l-67 82q-40 -43 -73 -63q-58 -35 -134 -35q-112 0 -163 60t-51 136q0 81 50 136q30 33 113 83q-46 52 -61.5 87.5t-15.5 69.5z" />
    <glyph glyph-name="FL364" unicode="&#xe03e;" horiz-adv-x="191" 
d="M165 717l-16 -287h-57l-16 287h89z" />
    <glyph glyph-name="FL365" unicode="&#xe03f;" horiz-adv-x="333" 
d="M296 729q-77 -149 -100 -219q-34 -107 -34 -247q0 -142 39 -259q25 -72 96 -208h-59q-71 112 -88 142.5t-37 82.5q-28 73 -38 155q-6 42 -6 81q0 144 46 257q29 72 120 215h61z" />
    <glyph glyph-name="FL366" unicode="&#xe040;" horiz-adv-x="333" 
d="M35 -204q77 152 100 221q34 105 34 246t-40 258q-24 72 -96 208h59q75 -120 91 -148t35 -78q23 -61 33 -120.5t10 -114.5q0 -144 -46 -258q-28 -72 -119 -214h-61z" />
    <glyph glyph-name="FL367" unicode="&#xe041;" horiz-adv-x="389" 
d="M220 717v-109l106 38l20 -55l-107 -34l66 -92l-48 -35l-64 95l-65 -95l-49 35l67 92l-108 34l20 55l105 -39v110h57z" />
    <glyph glyph-name="FL368" unicode="&#xe042;" horiz-adv-x="584" 
d="M45 214v82h213v214h83v-214h213v-82h-213v-214h-83v214h-213z" />
    <glyph glyph-name="FL369" unicode="&#xe043;" horiz-adv-x="278" 
d="M83 -102q34 6 47 48q8 22 8 42q0 4 -0.5 6.5t-1.5 5.5h-53v106h105v-98q0 -58 -23.5 -102t-81.5 -54v46z" />
    <glyph glyph-name="FL370" unicode="&#xe044;" horiz-adv-x="333" 
d="M42 324h245v-91h-245v91z" />
    <glyph glyph-name="FL371" unicode="&#xe045;" horiz-adv-x="278" 
d="M85 106h103v-106h-103v106z" />
    <glyph glyph-name="FL372" unicode="&#xe046;" horiz-adv-x="278" 
d="M228 717h74l-228 -717h-74z" />
    <glyph glyph-name="FL373" unicode="&#xe047;" 
d="M467 587q47 -86 47 -236q0 -143 -43 -236q-61 -134 -201 -134q-126 0 -187 109q-52 92 -52 245q0 120 31 205q58 159 209 159q135 0 196 -112zM419 347q0 119 -29.5 196t-113.5 77q-78 0 -114 -73t-36 -215q0 -107 23 -172q36 -99 121 -99q68 0 108.5 60.5t40.5 225.5z
" />
    <glyph glyph-name="FL374" unicode="&#xe048;" 
d="M96 495v68q95 9 132.5 30.5t56.5 102.5h69v-696h-94v495h-164z" />
    <glyph glyph-name="FL375" unicode="&#xe049;" 
d="M195 279l94 54q63 37 88 63q40 40 40 92q0 61 -36.5 97t-97.5 36q-90 0 -125 -68q-18 -37 -20 -102h-90q2 91 34 149q57 102 202 102q120 0 175.5 -65t55.5 -145q0 -84 -59 -143q-35 -35 -123 -84l-67 -37q-48 -27 -75 -51q-49 -42 -62 -94h382v-83h-480q5 90 37.5 157
t126.5 122z" />
    <glyph glyph-name="FL376" unicode="&#xe04a;" 
d="M24 215h92q6 -68 25 -99q34 -55 124 -55q69 0 111 37t42 96q0 72 -44 101t-123 29q-9 0 -18 -0.5t-18 -0.5v77q14 -1 23 -1.5t20 -0.5q49 0 81 16q56 27 56 97q0 52 -37.5 80.5t-86.5 28.5q-88 0 -122 -58q-18 -33 -21 -92h-86q0 78 31 133q53 97 189 97
q107 0 165.5 -47.5t58.5 -137.5q0 -65 -35 -105q-21 -25 -55 -39q55 -15 86 -58t31 -106q0 -100 -66 -163t-187 -63q-124 0 -180 68t-56 166z" />
    <glyph glyph-name="FL377" unicode="&#xe04b;" 
d="M331 248v316l-225 -316h225zM332 0v171h-307v86l321 444h74v-453h103v-77h-103v-171h-88z" />
    <glyph glyph-name="FL378" unicode="&#xe04c;" 
d="M124 178q8 -75 69 -104q32 -14 73 -14q78 0 115.5 49.5t37.5 110.5q0 73 -44.5 113t-107.5 40q-45 0 -77.5 -17.5t-55.5 -48.5l-76 4l53 377h363v-85h-297l-30 -195q24 19 46 28q39 16 91 16q96 0 163 -62t67 -157q0 -99 -61.5 -174.5t-195.5 -75.5q-86 0 -151.5 48
t-73.5 147h92z" />
    <glyph glyph-name="FL379" unicode="&#xe04d;" 
d="M502 516h-87q-8 42 -25 65q-32 44 -96 44q-74 0 -117.5 -68t-48.5 -195q31 44 77 66q42 20 93 20q88 0 153.5 -56.5t65.5 -167.5q0 -95 -62 -168.5t-177 -73.5q-98 0 -169 74.5t-71 250.5q0 131 31 221q61 174 223 174q118 0 164 -60.5t46 -125.5zM424 217
q0 54 -30.5 102.5t-111.5 48.5q-57 0 -99.5 -38t-42.5 -113q0 -67 38.5 -112t107.5 -45t103.5 46.5t34.5 110.5z" />
    <glyph glyph-name="FL380" unicode="&#xe04e;" 
d="M523 688v-77q-34 -33 -90 -114t-99 -175q-42 -91 -64 -166q-14 -49 -37 -156h-97q33 200 147 398q67 117 140 201h-386v89h486z" />
    <glyph glyph-name="FL381" unicode="&#xe04f;" 
d="M396 516q0 39 -31.5 72t-95.5 33q-63 0 -91.5 -33t-28.5 -77q0 -49 36.5 -77t86.5 -28q58 0 91 32.5t33 77.5zM419 191q0 68 -41.5 103.5t-106.5 35.5q-63 0 -103 -36t-40 -100q0 -54 36.5 -94t112.5 -40q61 0 101.5 33t40.5 98zM95 409q-38 39 -38 102q0 78 56.5 134
t160.5 56q101 0 158 -53t57 -124q0 -65 -33 -106q-19 -22 -58 -44q43 -20 68 -46q47 -49 47 -127q0 -93 -62 -157t-176 -64q-102 0 -172.5 55.5t-70.5 160.5q0 62 30.5 107.5t89.5 69.5q-36 15 -57 36z" />
    <glyph glyph-name="FL382" unicode="&#xe050;" 
d="M133 169q4 -73 56 -101q27 -14 61 -14q63 0 107 52.5t63 212.5q-29 -46 -72.5 -65t-93.5 -19q-101 0 -159.5 63t-58.5 162q0 96 58 168t171 72q153 0 211 -137q32 -76 32 -190q0 -128 -38 -227q-64 -165 -217 -165q-103 0 -156 53.5t-53 134.5h89zM405 467q0 77 -39 115
t-99 38q-64 0 -102 -43t-38 -116q0 -68 33 -108t106 -40q52 0 95.5 34t43.5 120z" />
    <glyph glyph-name="FL383" unicode="&#xe051;" horiz-adv-x="278" 
d="M111 516h102v-106h-102v106zM111 106h102v-106h-102v106z" />
    <glyph glyph-name="FL384" unicode="&#xe052;" horiz-adv-x="278" 
d="M111 -102q34 7 47 46q7 20 7 45v4t-1 7h-53v106h104v-98q0 -52 -15 -87q-26 -58 -89 -69v46zM111 516h104v-106h-104v106z" />
    <glyph glyph-name="FL385" unicode="&#xe053;" horiz-adv-x="584" 
d="M14 296l570 224v-88l-466 -177l466 -176v-88l-570 224v81z" />
    <glyph glyph-name="FL386" unicode="&#xe054;" horiz-adv-x="584" 
d="M554 401v-82h-509v82h509zM554 192v-84h-509v84h509z" />
    <glyph glyph-name="FL387" unicode="&#xe055;" horiz-adv-x="584" 
d="M584 214l-570 -223v88l466 176l-466 177v88l570 -224v-82z" />
    <glyph glyph-name="FL388" unicode="&#xe056;" 
d="M241 102h97v-102h-97v102zM299 727q97 0 154.5 -55t57.5 -141q0 -52 -21 -84t-86 -94q-47 -46 -60.5 -77.5t-13.5 -92.5h-87q0 69 16.5 112t72.5 98l39 39q18 16 28 34q20 32 20 66q0 48 -28.5 83t-94.5 35q-82 0 -113 -60q-17 -34 -20 -97h-87q0 105 59.5 169.5
t163.5 64.5z" />
    <glyph glyph-name="FL389" unicode="&#xe057;" horiz-adv-x="1015" 
d="M534 515q-56 0 -97 -66t-41 -131q0 -47 21 -72.5t53 -25.5q66 0 103 77t37 139q0 30 -20.5 54.5t-55.5 24.5zM198 106q-88 102 -88 236q0 159 107 271q119 124 320 124q174 0 274 -88q93 -83 93 -215q0 -112 -66.5 -190.5t-149.5 -78.5q-48 0 -71 23t-23 56q0 5 1 11
l2 12q-26 -56 -65.5 -79t-81.5 -23q-60 0 -97.5 43t-37.5 112q0 97 64 171t137 74q50 0 82.5 -28.5t34.5 -69.5l24 82h72l-65 -214q-7 -24 -10.5 -39.5t-3.5 -26.5q0 -22 13.5 -32t30.5 -10q56 0 100 58t44 152q0 113 -79 177.5t-213 64.5q-186 0 -284 -108
q-84 -92 -84 -232q0 -122 80 -205q94 -98 267 -98q81 0 151 25.5t128 68.5l32 -44q-44 -39 -131 -73t-192 -34q-204 0 -315 127z" />
    <glyph glyph-name="FL390" unicode="&#xe058;" horiz-adv-x="667" 
d="M444 294l-109 317l-115 -317h224zM285 717h110l260 -717h-107l-72 215h-284l-78 -215h-99z" />
    <glyph glyph-name="FL391" unicode="&#xe059;" horiz-adv-x="667" 
d="M346 414q61 0 95 17q54 27 54 97t-57 95q-32 13 -96 13h-173v-222h177zM378 83q90 0 128 52q24 32 24 79q0 78 -70 106q-37 15 -98 15h-193v-252h209zM74 717h308q126 0 179 -75q31 -44 31 -102q0 -68 -38 -112q-20 -23 -58 -42q55 -21 83 -47q48 -47 48 -130
q0 -69 -44 -125q-64 -84 -206 -84h-303v717z" />
    <glyph glyph-name="FL392" unicode="&#xe05a;" horiz-adv-x="722" 
d="M673 502h-94q-16 69 -64.5 109.5t-135.5 40.5q-106 0 -171 -74.5t-65 -227.5q0 -126 59 -204.5t175 -78.5q108 0 164 82q30 44 44 115h95q-13 -114 -84 -190q-85 -92 -230 -92q-125 0 -210 75q-112 100 -112 309q0 159 84 260q91 111 250 111q137 0 212 -72t83 -163z" />
    <glyph glyph-name="FL393" unicode="&#xe05b;" horiz-adv-x="722" 
d="M352 83q49 0 81 10q56 19 92 74q29 43 42 111q7 40 7 75q0 133 -53 207t-170 74h-173v-551h174zM81 717h290q148 0 230 -105q72 -94 72 -242q0 -115 -43 -207q-75 -163 -260 -163h-289v717z" />
    <glyph glyph-name="FL394" unicode="&#xe05c;" horiz-adv-x="667" 
d="M85 717h523v-88h-428v-217h396v-83h-396v-244h436v-85h-531v717z" />
    <glyph glyph-name="FL395" unicode="&#xe05d;" horiz-adv-x="611" 
d="M85 717h498v-88h-400v-217h352v-86h-352v-326h-98v717z" />
    <glyph glyph-name="FL396" unicode="&#xe05e;" horiz-adv-x="778" 
d="M561 697q107 -56 131 -197h-96q-18 79 -73 114.5t-139 35.5q-100 0 -168 -74.5t-68 -222.5q0 -128 56 -208.5t183 -80.5q97 0 161 56.5t65 182.5h-224v81h315v-384h-63l-23 92q-50 -54 -88 -75q-64 -36 -162 -36q-128 0 -220 82q-100 104 -100 285q0 180 98 286
q93 102 240 102q101 0 175 -39z" />
    <glyph glyph-name="FL397" unicode="&#xe05f;" horiz-adv-x="722" 
d="M79 717h98v-296h373v296h98v-717h-98v335h-373v-335h-98v717z" />
    <glyph glyph-name="FL398" unicode="&#xe060;" horiz-adv-x="278" 
d="M98 717h98v-717h-98v717z" />
    <glyph glyph-name="FL399" unicode="&#xe061;" horiz-adv-x="500" 
d="M428 214q0 -91 -27 -141q-49 -92 -189 -92q-81 0 -138 43.5t-57 155.5v51h91v-51q0 -58 26.5 -87.5t81.5 -29.5q77 0 101 53q15 32 15 123v478h96v-503z" />
    <glyph glyph-name="FL400" unicode="&#xe062;" horiz-adv-x="667" 
d="M76 717h95v-349l350 349h134l-299 -289l307 -428h-126l-251 360l-115 -110v-250h-95v717z" />
    <glyph glyph-name="FL401" unicode="&#xe063;" 
d="M76 717h97v-632h364v-85h-461v717z" />
    <glyph glyph-name="FL402" unicode="&#xe064;" horiz-adv-x="833" 
d="M74 717h139l206 -606l205 606h137v-717h-92v423q0 22 1 73t1 109l-205 -605h-96l-206 605v-22q0 -26 1.5 -80t1.5 -80v-423h-93v717z" />
    <glyph glyph-name="FL403" unicode="&#xe065;" horiz-adv-x="722" 
d="M76 717h115l362 -581v581h93v-717h-109l-368 581v-581h-93v717z" />
    <glyph glyph-name="FL404" unicode="&#xe066;" horiz-adv-x="778" 
d="M667 615q71 -95 71 -244q0 -161 -81 -267q-96 -125 -273 -125q-166 0 -260 109q-85 106 -85 267q0 145 72 249q93 133 275 133q190 0 281 -122zM639 370q0 126 -66.5 203t-180.5 77q-112 0 -182 -76t-70 -225q0 -120 60 -201.5t196 -81.5q128 0 185.5 92t57.5 212z" />
    <glyph glyph-name="FL405" unicode="&#xe067;" horiz-adv-x="667" 
d="M85 717h323q96 0 154.5 -54t58.5 -151q0 -84 -52 -146.5t-161 -62.5h-225v-303h-98v717zM464 619q-32 15 -88 15h-193v-249h193q65 0 106 28t41 98q0 79 -59 108z" />
    <glyph glyph-name="FL406" unicode="&#xe068;" horiz-adv-x="778" 
d="M732 2l-48 -59l-111 84q-40 -22 -87 -35t-102 -13q-167 0 -261 109q-84 107 -84 267q0 145 72 249q93 133 275 133q190 0 281 -122q71 -95 71 -244q0 -69 -17 -133q-26 -98 -87 -159zM499 86l-79 62l49 60l94 -73q44 51 60 114t16 121q0 126 -66.5 203t-180.5 77
q-117 0 -184.5 -74t-67.5 -227q0 -130 65 -206.5t191 -76.5q30 0 56.5 4t46.5 16z" />
    <glyph glyph-name="FL407" unicode="&#xe069;" horiz-adv-x="722" 
d="M410 389q68 0 108 27t40 99q0 76 -56 104q-30 15 -80 15h-237v-245h225zM88 717h332q82 0 135 -24q101 -46 101 -169q0 -65 -26.5 -106t-74.5 -65q42 -18 63.5 -45.5t23.5 -90.5l4 -96q1 -41 6 -61q9 -34 32 -44v-16h-120q-4 9 -7 24t-5 57l-6 119q-4 71 -52 94
q-28 14 -88 14h-221v-308h-97v717z" />
    <glyph glyph-name="FL408" unicode="&#xe06a;" horiz-adv-x="667" 
d="M140 231q3 -61 28 -99q49 -71 171 -71q55 0 99 16q87 30 87 108q0 59 -36 84q-37 24 -116 42l-98 22q-95 21 -134 47q-69 45 -69 135q0 96 67 158t190 62q112 0 191 -54.5t79 -173.5h-91q-8 57 -31 88q-45 56 -151 56q-86 0 -123.5 -36t-37.5 -84q0 -52 43 -77
q29 -16 131 -39l100 -23q73 -17 113 -45q68 -51 68 -146q0 -119 -86.5 -170.5t-201.5 -51.5q-134 0 -209 68q-76 68 -75 184h92z" />
    <glyph glyph-name="FL409" unicode="&#xe06b;" horiz-adv-x="611" 
d="M598 717v-85h-242v-632h-98v632h-242v85h582z" />
    <glyph glyph-name="FL410" unicode="&#xe06c;" horiz-adv-x="722" 
d="M182 717v-443q0 -78 29 -130q43 -78 146 -78q124 0 168 84q24 46 24 124v443h99v-403q0 -132 -36 -203q-65 -130 -247 -130q-181 0 -246 130q-36 71 -36 203v403h99z" />
    <glyph glyph-name="FL411" unicode="&#xe06d;" horiz-adv-x="667" 
d="M133 717l206 -611l203 611h109l-261 -717h-103l-262 717h108z" />
    <glyph glyph-name="FL412" unicode="&#xe06e;" horiz-adv-x="944" 
d="M124 717l135 -583l162 583h105l162 -583l136 583h106l-188 -717h-102l-166 595l-166 -595h-102l-188 717h106z" />
    <glyph glyph-name="FL413" unicode="&#xe06f;" horiz-adv-x="667" 
d="M138 0h-117l256 368l-240 349h121l183 -274l182 274h116l-241 -349l252 -368h-120l-194 295z" />
    <glyph glyph-name="FL414" unicode="&#xe070;" horiz-adv-x="667" 
d="M21 717h113l206 -344l206 344h114l-271 -428v-289h-97v289z" />
    <glyph glyph-name="FL415" unicode="&#xe071;" horiz-adv-x="611" 
d="M23 81l440 551h-408v85h533v-83l-442 -549h442v-85h-565v81z" />
    <glyph glyph-name="FL416" unicode="&#xe072;" horiz-adv-x="278" 
d="M63 722h187v-72h-104v-775h104v-71h-187v918z" />
    <glyph glyph-name="FL417" unicode="&#xe073;" horiz-adv-x="278" 
d="M42 717l279 -717h-76l-278 717h75z" />
    <glyph glyph-name="FL418" unicode="&#xe074;" horiz-adv-x="278" 
d="M23 -125h104v775h-104v72h187v-918h-187v71z" />
    <glyph glyph-name="FL419" unicode="&#xe075;" horiz-adv-x="469" 
d="M305 717l173 -421h-80l-130 323l-129 -323h-80l171 421h75z" />
    <glyph glyph-name="FL420" unicode="&#xe076;" 
d="M0 -125v50h556v-50h-556z" />
    <glyph glyph-name="FL421" unicode="&#xe077;" horiz-adv-x="333" 
d="M171 592h-67l-130 141h108z" />
    <glyph glyph-name="FL422" unicode="&#xe078;" 
d="M226 57q46 0 89 22q74 35 74 116v71q-16 -10 -41.5 -17t-50.5 -10l-53 -7q-48 -6 -72 -20q-40 -23 -40 -73q0 -38 28 -60t66 -22zM345 317q30 4 40 25q6 12 6 34q0 45 -32 65t-91 20q-69 0 -98 -37q-16 -20 -21 -61h-82q2 97 62.5 135t140.5 38q92 0 149 -36
q58 -35 58 -109v-301q0 -14 5.5 -22t23.5 -8q6 0 13 0.5t16 2.5v-65q-21 -6 -31.5 -7.5t-29.5 -1.5q-45 0 -66 32q-11 17 -15 48q-27 -35 -77 -60.5t-111 -25.5q-73 0 -119 44t-46 110q0 73 45.5 113t119.5 49z" />
    <glyph glyph-name="FL423" unicode="&#xe079;" 
d="M58 720h85v-261q29 38 69 58t87 20q97 0 158 -67.5t61 -198.5q0 -124 -60 -205.5t-166 -81.5q-60 0 -101 28q-24 17 -52 55v-67h-81v720zM428 267q0 83 -35.5 137t-103.5 54q-60 0 -105.5 -44.5t-45.5 -146.5q0 -74 19 -120q34 -86 129 -86q71 0 106.5 56.5t35.5 149.5z
" />
    <glyph glyph-name="FL424" unicode="&#xe07a;" horiz-adv-x="500" 
d="M477 347h-86q-8 49 -35.5 80.5t-89.5 31.5q-84 0 -120 -82q-23 -53 -23 -131q0 -79 33 -132.5t104 -53.5q55 0 87 33.5t44 91.5h86q-15 -104 -73.5 -152t-150.5 -48q-102 0 -163 75t-61 187q0 138 67 214.5t170 76.5q88 0 143.5 -43t67.5 -148z" />
    <glyph glyph-name="FL425" unicode="&#xe07b;" 
d="M270 58q61 0 100.5 52.5t39.5 150.5q0 99 -40.5 147t-100.5 48q-66 0 -107.5 -51t-41.5 -150q0 -84 35.5 -140.5t114.5 -56.5zM353 507q23 -15 53 -51v264h85v-720h-79v73q-31 -49 -73 -70t-96 -21q-88 0 -152 73t-64 195q0 115 58.5 198.5t166.5 83.5q61 0 101 -25z" />
    <glyph glyph-name="FL426" unicode="&#xe07c;" 
d="M470 441q26 -40 35 -92q8 -36 8 -116h-384q3 -79 38 -127t109 -48q69 0 110 45q23 26 33 61h86q-3 -29 -22.5 -64.5t-43.5 -57.5q-40 -39 -99 -52q-31 -8 -71 -8q-98 0 -166 71t-68 198q0 126 68.5 205t178.5 79q56 0 108 -26.5t80 -67.5zM422 303q-5 57 -25 92
q-36 63 -120 63q-61 0 -102 -43.5t-43 -111.5h290z" />
    <glyph glyph-name="FL427" unicode="&#xe07d;" horiz-adv-x="278" 
d="M105 683q31 45 119 45q8 0 17 -0.5t20 -1.5v-80q-13 0 -19.5 0.5t-11.5 0.5q-40 0 -48 -21t-8 -105h87v-70h-88v-451h-87v451h-72v70h72v82q2 54 19 80z" />
    <glyph glyph-name="FL428" unicode="&#xe07e;" 
d="M356 502q25 -17 51 -50v66h81v-476q0 -99 -29 -156q-55 -107 -207 -107q-84 0 -141.5 38t-64.5 119h89q7 -36 26 -55q29 -29 93 -29q101 0 133 71q18 42 17 150q-27 -40 -64 -59.5t-98 -19.5q-85 0 -148.5 60t-63.5 199q0 132 64 205.5t155 73.5q62 0 107 -30zM265 455
q-93 0 -127 -87q-18 -47 -18 -122q0 -88 36 -134.5t96 -46.5q95 0 134 86q21 48 21 113q0 97 -40 144t-102 47z" />
    <glyph glyph-name="FL429" unicode="&#xe07f;" 
d="M64 720h88v-268q32 40 56 56q43 28 106 28q114 0 155 -80q22 -43 22 -121v-335h-91v330q0 57 -14 84q-24 43 -90 43q-55 0 -99.5 -37.5t-44.5 -142.5v-277h-88v720z" />
    <glyph glyph-name="FL430" unicode="&#xe080;" horiz-adv-x="222" 
d="M64 521h90v-521h-90v521zM64 717h90v-99h-90v99z" />
    <glyph glyph-name="FL431" unicode="&#xe081;" horiz-adv-x="222" 
d="M152 616h-88v101h88v-101zM-18 -132q59 2 70.5 10.5t11.5 53.5v589h88v-598q0 -57 -18 -86q-31 -47 -117 -47q-6 0 -13 0.5t-22 1.5v76z" />
    <glyph glyph-name="FL432" unicode="&#xe082;" horiz-adv-x="500" 
d="M63 717h84v-416l226 222h112l-200 -196l211 -327h-112l-163 264l-74 -68v-196h-84v717z" />
    <glyph glyph-name="FL433" unicode="&#xe083;" horiz-adv-x="222" 
d="M67 717h88v-717h-88v717z" />
    <glyph glyph-name="FL434" unicode="&#xe084;" horiz-adv-x="833" 
d="M64 523h87v-74q32 38 57 56q43 30 99 30q62 0 100 -31q22 -18 39 -52q30 42 69.5 62.5t88.5 20.5q105 0 144 -77q20 -41 20 -110v-348h-91v363q0 53 -26 72.5t-64 19.5q-52 0 -89.5 -35t-37.5 -116v-304h-89v341q0 54 -13 78q-20 37 -74 37q-50 0 -91 -39t-41 -140v-277
h-88v523z" />
    <glyph glyph-name="FL435" unicode="&#xe085;" 
d="M64 523h84v-74q37 46 78.5 66t92.5 20q111 0 150 -78q22 -42 22 -122v-335h-90v330q0 47 -14 77q-23 49 -85 49q-31 0 -51 -7q-36 -11 -63 -43q-22 -26 -29 -53.5t-7 -78.5v-274h-88v523z" />
    <glyph glyph-name="FL436" unicode="&#xe086;" 
d="M424 270q0 73 -23 119q-37 72 -128 72q-81 0 -117.5 -61.5t-36.5 -148.5q0 -83 36.5 -138.5t116.5 -55.5q87 0 119.5 66t32.5 147zM516 272q0 -126 -61.5 -208.5t-190.5 -82.5q-108 0 -171.5 73t-63.5 196q0 132 67 210t179 78q101 0 171 -67.5t70 -198.5z" />
    <glyph glyph-name="FL437" unicode="&#xe087;" 
d="M428 265q0 62 -18 107q-34 86 -125 86t-125 -91q-18 -49 -18 -124q0 -60 18 -103q34 -81 125 -81q62 0 102.5 51.5t40.5 154.5zM58 521h85v-70q26 36 58 55q44 30 104 30q89 0 151 -68.5t62 -194.5q0 -171 -89 -244q-57 -46 -132 -46q-59 0 -99 25q-24 15 -52 51v-267
h-88v729z" />
    <glyph glyph-name="FL438" unicode="&#xe088;" 
d="M140 141q34 -82 121 -82q92 0 126 86q19 47 19 121q0 68 -21 113q-35 78 -125 78q-57 0 -98 -49.5t-41 -153.5q0 -67 19 -113zM360 502q25 -18 47 -52v73h84v-731h-89v268q-22 -35 -60.5 -55.5t-96.5 -20.5q-84 0 -150 65t-66 199q0 126 62 206.5t160 80.5q65 0 109 -33z
" />
    <glyph glyph-name="FL439" unicode="&#xe089;" horiz-adv-x="333" 
d="M67 523h83v-90q11 26 51 64t92 38q2 0 8 -0.5t20 -2.5v-93q-8 2 -14.5 2.5t-14.5 0.5q-66 0 -101.5 -43t-35.5 -98v-301h-88v523z" />
    <glyph glyph-name="FL440" unicode="&#xe08a;" horiz-adv-x="500" 
d="M117 164q4 -44 22 -67q33 -43 115 -43q49 0 86 21.5t37 65.5q0 34 -30 51q-19 11 -75 25l-70 18q-67 16 -98 37q-57 36 -57 99q0 74 53.5 120t143.5 46q118 0 171 -70q32 -44 31 -94h-83q-2 29 -21 54q-30 34 -105 34q-49 0 -75 -19t-26 -50q0 -34 34 -55q19 -12 58 -21
l58 -14q94 -23 127 -45q51 -33 51 -106q0 -69 -53 -120t-161 -51q-117 0 -165.5 53t-52.5 131h85z" />
    <glyph glyph-name="FL441" unicode="&#xe08b;" horiz-adv-x="278" 
d="M82 669h89v-146h83v-72h-83v-341q0 -27 18 -37q11 -5 35 -5h13.5t16.5 1v-69q-15 -4 -31 -6t-35 -2q-62 0 -84 31.5t-22 81.5v346h-71v72h71v146z" />
    <glyph glyph-name="FL442" unicode="&#xe08c;" 
d="M152 523v-347q0 -40 13 -66q23 -47 87 -47q92 0 125 83q19 43 19 120v257h87v-523h-83l1 77q-17 -30 -42 -50q-50 -41 -122 -41q-112 0 -153 75q-21 40 -21 106v356h89z" />
    <glyph glyph-name="FL443" unicode="&#xe08d;" horiz-adv-x="500" 
d="M107 523l140 -426l146 426h96l-197 -523h-94l-193 523h102z" />
    <glyph glyph-name="FL444" unicode="&#xe08e;" horiz-adv-x="722" 
d="M105 523l101 -412l102 412h98l103 -410l107 410h88l-152 -523h-92l-106 405l-103 -405h-91l-151 523h96z" />
    <glyph glyph-name="FL445" unicode="&#xe08f;" horiz-adv-x="500" 
d="M15 523h113l121 -184l121 184h108l-177 -255l184 -268h-112l-130 196l-126 -196h-112l184 268z" />
    <glyph glyph-name="FL446" unicode="&#xe090;" horiz-adv-x="500" 
d="M391 523h97q-18 -50 -82 -230q-48 -134 -80 -219q-76 -200 -107.5 -244t-107.5 -44q-19 0 -29 1.5t-24 5.5v80q23 -6 33 -7.5t18 -1.5q24 0 35.5 8t19.5 20q3 4 18 40t22 53l-194 538h100l140 -426z" />
    <glyph glyph-name="FL447" unicode="&#xe091;" horiz-adv-x="500" 
d="M25 69l310 375h-287v79h406v-72l-308 -372h317v-79h-438v69z" />
    <glyph glyph-name="FL448" unicode="&#xe092;" horiz-adv-x="334" 
d="M191 -2q0 -75 38 -107t84 -37v-58q-87 9 -144 51.5t-57 138.5v100q0 54 -17 84q-30 57 -116 66v56q86 10 116 63q17 30 17 86v80q0 91 39.5 145t161.5 64v-56q-79 -7 -107 -69q-15 -34 -15 -95v-54q0 -74 -18 -113q-33 -71 -127 -79q94 -9 127 -82q18 -41 18 -111v-73z
" />
    <glyph glyph-name="FL449" unicode="&#xe093;" horiz-adv-x="260" 
d="M154 0h-84v728h84v-728z" />
    <glyph glyph-name="FL450" unicode="&#xe094;" horiz-adv-x="334" 
d="M160 343q-18 39 -18 113v54q0 65 -15 98q-27 59 -106 66v56q125 -10 170 -78q30 -44 30 -131v-80q0 -55 16 -85q31 -55 117 -64v-56q-86 -9 -117 -66q-16 -31 -16 -84v-100q0 -98 -57 -139t-143 -51v58q52 6 86.5 41t34.5 103v73q0 71 18 111q33 73 127 82q-94 8 -127 79
z" />
    <glyph glyph-name="FL451" unicode="&#xe095;" horiz-adv-x="584" 
d="M190 335q28 -3 54 -14l109 -42q24 -10 41 -15q25 -7 45 -7q36 0 60.5 28t33.5 69h57q-12 -69 -48 -126.5t-109 -57.5q-22 0 -52 9q-18 6 -52 19l-100 38q-19 7 -38.5 11t-32.5 4q-41 0 -64 -32q-14 -18 -28 -63h-57q8 41 18 69.5t34 64.5q21 24 44.5 36t55.5 12
q14 0 29 -3z" />
    <glyph glyph-name="FL297" unicode="&#xe002;" horiz-adv-x="667" 
d="M444 294l-109 317l-115 -317h224zM285 717h110l260 -717h-107l-72 215h-284l-78 -215h-99zM370 888h91v-102h-91v102zM209 888h91v-102h-91v102z" />
    <glyph glyph-name="FL298" unicode="&#xe003;" horiz-adv-x="667" 
d="M444 294l-109 317l-115 -317h224zM285 717h110l260 -717h-107l-72 215h-284l-78 -215h-99zM334 812q25 0 43.5 18.5t18.5 43.5t-18.5 43t-43.5 18t-43 -18t-18 -43t18 -43.5t43 -18.5zM334 976q42 0 72 -30t30 -72t-30 -72t-72 -30t-72 30t-30 72t30 72t72 30z" />
    <glyph glyph-name="FL511" unicode="&#xe096;" horiz-adv-x="722" 
d="M673 502h-94q-16 69 -64.5 109.5t-135.5 40.5q-106 0 -171 -74.5t-65 -227.5q0 -126 59 -204.5t175 -78.5q108 0 164 82q30 44 44 115h95q-13 -114 -84 -190q-85 -92 -220 -92l-32 -44q14 4 36 4q35 0 57 -19.5t22 -56.5t-29.5 -64t-89.5 -27q-26 0 -54 8q-15 4 -42 13
l17 40q19 -7 29 -10q20 -5 36 -5q18 0 31 5q26 10 26 37q0 16 -13 27.5t-35 11.5q-10 0 -18.5 -2t-20.5 -6l-17 20l50 68q-86 0 -171 67q-114 108 -114 317q0 159 84 260q91 111 250 111q137 0 212 -72t83 -163z" />
    <glyph glyph-name="FL300" unicode="&#xe004;" horiz-adv-x="667" 
d="M85 717h523v-88h-428v-217h396v-83h-396v-244h436v-85h-531v717zM481 915l-131 -141h-67l89 141h109z" />
    <glyph glyph-name="FL307" unicode="&#xe005;" horiz-adv-x="722" 
d="M76 717h115l362 -581v581h93v-717h-109l-368 581v-581h-93v717zM378 867q14 -6 25.5 -9.5t22.5 -3.5q28 0 39 17q7 10 9 28h51q-10 -62 -39 -85.5t-64 -23.5q-10 0 -27 4t-29 9l-26 9q-23 9 -37.5 13t-28.5 4q-17 0 -27.5 -11t-14.5 -34h-48q6 38 21 63q28 44 82 44
q17 0 37 -4.5t54 -19.5z" />
    <glyph glyph-name="FL312" unicode="&#xe006;" horiz-adv-x="778" 
d="M667 615q71 -95 71 -244q0 -161 -81 -267q-96 -125 -273 -125q-166 0 -260 109q-85 106 -85 267q0 145 72 249q93 133 275 133q190 0 281 -122zM639 370q0 126 -66.5 203t-180.5 77q-112 0 -182 -76t-70 -225q0 -120 60 -201.5t196 -81.5q128 0 185.5 92t57.5 212z
M423 907h91v-102h-91v102zM262 907h91v-102h-91v102z" />
    <glyph glyph-name="FL316" unicode="&#xe007;" horiz-adv-x="722" 
d="M182 717v-443q0 -78 29 -130q43 -78 146 -78q124 0 168 84q24 46 24 124v443h99v-403q0 -132 -36 -203q-65 -130 -247 -130q-181 0 -246 130q-36 71 -36 203v403h99zM400 888h91v-102h-91v102zM239 888h91v-102h-91v102z" />
    <glyph glyph-name="FL318" unicode="&#xe008;" 
d="M226 57q46 0 89 22q74 35 74 116v71q-16 -10 -41.5 -17t-50.5 -10l-53 -7q-48 -6 -72 -20q-40 -23 -40 -73q0 -38 28 -60t66 -22zM345 317q30 4 40 25q6 12 6 34q0 45 -32 65t-91 20q-69 0 -98 -37q-16 -20 -21 -61h-82q2 97 62.5 135t140.5 38q92 0 149 -36
q58 -35 58 -109v-301q0 -14 5.5 -22t23.5 -8q6 0 13 0.5t16 2.5v-65q-21 -6 -31.5 -7.5t-29.5 -1.5q-45 0 -66 32q-11 17 -15 48q-27 -35 -77 -60.5t-111 -25.5q-73 0 -119 44t-46 110q0 73 45.5 113t119.5 49zM403 733l-131 -141h-67l89 141h109z" />
    <glyph glyph-name="FL317" unicode="&#xe009;" 
d="M226 57q46 0 89 22q74 35 74 116v71q-16 -10 -41.5 -17t-50.5 -10l-53 -7q-48 -6 -72 -20q-40 -23 -40 -73q0 -38 28 -60t66 -22zM345 317q30 4 40 25q6 12 6 34q0 45 -32 65t-91 20q-69 0 -98 -37q-16 -20 -21 -61h-82q2 97 62.5 135t140.5 38q92 0 149 -36
q58 -35 58 -109v-301q0 -14 5.5 -22t23.5 -8q6 0 13 0.5t16 2.5v-65q-21 -6 -31.5 -7.5t-29.5 -1.5q-45 0 -66 32q-11 17 -15 48q-27 -35 -77 -60.5t-111 -25.5q-73 0 -119 44t-46 110q0 73 45.5 113t119.5 49zM339 592h-67l-130 141h108z" />
    <glyph glyph-name="FL319" unicode="&#xe00a;" 
d="M226 57q46 0 89 22q74 35 74 116v71q-16 -10 -41.5 -17t-50.5 -10l-53 -7q-48 -6 -72 -20q-40 -23 -40 -73q0 -38 28 -60t66 -22zM345 317q30 4 40 25q6 12 6 34q0 45 -32 65t-91 20q-69 0 -98 -37q-16 -20 -21 -61h-82q2 97 62.5 135t140.5 38q92 0 149 -36
q58 -35 58 -109v-301q0 -14 5.5 -22t23.5 -8q6 0 13 0.5t16 2.5v-65q-21 -6 -31.5 -7.5t-29.5 -1.5q-45 0 -66 32q-11 17 -15 48q-27 -35 -77 -60.5t-111 -25.5q-73 0 -119 44t-46 110q0 73 45.5 113t119.5 49zM318 733l100 -141h-80l-66 94l-66 -94h-79l99 141h92z" />
    <glyph glyph-name="FL321" unicode="&#xe00b;" 
d="M226 57q46 0 89 22q74 35 74 116v71q-16 -10 -41.5 -17t-50.5 -10l-53 -7q-48 -6 -72 -20q-40 -23 -40 -73q0 -38 28 -60t66 -22zM345 317q30 4 40 25q6 12 6 34q0 45 -32 65t-91 20q-69 0 -98 -37q-16 -20 -21 -61h-82q2 97 62.5 135t140.5 38q92 0 149 -36
q58 -35 58 -109v-301q0 -14 5.5 -22t23.5 -8q6 0 13 0.5t16 2.5v-65q-21 -6 -31.5 -7.5t-29.5 -1.5q-45 0 -66 32q-11 17 -15 48q-27 -35 -77 -60.5t-111 -25.5q-73 0 -119 44t-46 110q0 73 45.5 113t119.5 49zM307 706h91v-102h-91v102zM146 706h91v-102h-91v102z" />
    <glyph glyph-name="FL320" unicode="&#xe00c;" 
d="M226 57q46 0 89 22q74 35 74 116v71q-16 -10 -41.5 -17t-50.5 -10l-53 -7q-48 -6 -72 -20q-40 -23 -40 -73q0 -38 28 -60t66 -22zM345 317q30 4 40 25q6 12 6 34q0 45 -32 65t-91 20q-69 0 -98 -37q-16 -20 -21 -61h-82q2 97 62.5 135t140.5 38q92 0 149 -36
q58 -35 58 -109v-301q0 -14 5.5 -22t23.5 -8q6 0 13 0.5t16 2.5v-65q-21 -6 -31.5 -7.5t-29.5 -1.5q-45 0 -66 32q-11 17 -15 48q-27 -35 -77 -60.5t-111 -25.5q-73 0 -119 44t-46 110q0 73 45.5 113t119.5 49zM295 685q14 -6 25.5 -9.5t22.5 -3.5q28 0 39 17q7 10 9 28h51
q-10 -62 -39 -85.5t-64 -23.5q-10 0 -27 4t-29 9l-26 9q-23 9 -37.5 13t-28.5 4q-17 0 -27.5 -11t-14.5 -34h-48q6 38 21 63q28 44 82 44q17 0 37 -4.5t54 -19.5z" />
    <glyph glyph-name="FL322" unicode="&#xe00d;" 
d="M226 57q46 0 89 22q74 35 74 116v71q-16 -10 -41.5 -17t-50.5 -10l-53 -7q-48 -6 -72 -20q-40 -23 -40 -73q0 -38 28 -60t66 -22zM345 317q30 4 40 25q6 12 6 34q0 45 -32 65t-91 20q-69 0 -98 -37q-16 -20 -21 -61h-82q2 97 62.5 135t140.5 38q92 0 149 -36
q58 -35 58 -109v-301q0 -14 5.5 -22t23.5 -8q6 0 13 0.5t16 2.5v-65q-21 -6 -31.5 -7.5t-29.5 -1.5q-45 0 -66 32q-11 17 -15 48q-27 -35 -77 -60.5t-111 -25.5q-73 0 -119 44t-46 110q0 73 45.5 113t119.5 49zM272 630q25 0 43.5 18.5t18.5 43.5t-18.5 43t-43.5 18t-43 -18
t-18 -43t18 -43.5t43 -18.5zM272 794q42 0 72 -30t30 -72t-30 -72t-72 -30t-72 30t-30 72t30 72t72 30z" />
    <glyph glyph-name="FL543" unicode="&#xe097;" horiz-adv-x="500" 
d="M477 347h-86q-8 49 -35.5 80.5t-89.5 31.5q-84 0 -120 -82q-23 -53 -23 -131q0 -79 33 -132.5t104 -53.5q55 0 87 33.5t44 91.5h86q-15 -104 -73.5 -152t-136.5 -48l-35 -47q15 4 37 4q34 0 56.5 -19.5t22.5 -56.5t-29.5 -64t-89.5 -27q-26 0 -54 8q-16 4 -42 13l17 40
q18 -7 29 -10q20 -5 36 -5q18 0 31 5q25 10 25 37q0 16 -12.5 27.5t-34.5 11.5q-11 0 -19.5 -2t-19.5 -6l-18 20l53 71q-69 0 -121 56q-70 79 -70 206q0 138 67 214.5t170 76.5q88 0 143.5 -43t67.5 -148z" />
    <glyph glyph-name="FL324" unicode="&#xe00e;" 
d="M470 441q26 -40 35 -92q8 -36 8 -116h-384q3 -79 38 -127t109 -48q69 0 110 45q23 26 33 61h86q-3 -29 -22.5 -64.5t-43.5 -57.5q-40 -39 -99 -52q-31 -8 -71 -8q-98 0 -166 71t-68 198q0 126 68.5 205t178.5 79q56 0 108 -26.5t80 -67.5zM422 303q-5 57 -25 92
q-36 63 -120 63q-61 0 -102 -43.5t-43 -111.5h290zM404 733l-131 -141h-67l89 141h109z" />
    <glyph glyph-name="FL323" unicode="&#xe00f;" 
d="M470 441q26 -40 35 -92q8 -36 8 -116h-384q3 -79 38 -127t109 -48q69 0 110 45q23 26 33 61h86q-3 -29 -22.5 -64.5t-43.5 -57.5q-40 -39 -99 -52q-31 -8 -71 -8q-98 0 -166 71t-68 198q0 126 68.5 205t178.5 79q56 0 108 -26.5t80 -67.5zM422 303q-5 57 -25 92
q-36 63 -120 63q-61 0 -102 -43.5t-43 -111.5h290zM341 592h-67l-130 141h108z" />
    <glyph glyph-name="FL325" unicode="&#xe010;" 
d="M470 441q26 -40 35 -92q8 -36 8 -116h-384q3 -79 38 -127t109 -48q69 0 110 45q23 26 33 61h86q-3 -29 -22.5 -64.5t-43.5 -57.5q-40 -39 -99 -52q-31 -8 -71 -8q-98 0 -166 71t-68 198q0 126 68.5 205t178.5 79q56 0 108 -26.5t80 -67.5zM422 303q-5 57 -25 92
q-36 63 -120 63q-61 0 -102 -43.5t-43 -111.5h290zM320 733l100 -141h-80l-66 94l-66 -94h-79l99 141h92z" />
    <glyph glyph-name="FL326" unicode="&#xe011;" 
d="M470 441q26 -40 35 -92q8 -36 8 -116h-384q3 -79 38 -127t109 -48q69 0 110 45q23 26 33 61h86q-3 -29 -22.5 -64.5t-43.5 -57.5q-40 -39 -99 -52q-31 -8 -71 -8q-98 0 -166 71t-68 198q0 126 68.5 205t178.5 79q56 0 108 -26.5t80 -67.5zM422 303q-5 57 -25 92
q-36 63 -120 63q-61 0 -102 -43.5t-43 -111.5h290zM308 706h91v-102h-91v102zM147 706h91v-102h-91v102z" />
    <glyph glyph-name="FL328" unicode="&#xe012;" horiz-adv-x="278" 
d="M92 521h90v-521h-90v521zM268 733l-131 -141h-67l89 141h109z" />
    <glyph glyph-name="FL327" unicode="&#xe013;" horiz-adv-x="278" 
d="M92 521h90v-521h-90v521zM204 592h-67l-130 141h108z" />
    <glyph glyph-name="FL329" unicode="&#xe014;" horiz-adv-x="278" 
d="M92 521h90v-521h-90v521zM183 733l100 -141h-80l-66 94l-66 -94h-79l99 141h92z" />
    <glyph glyph-name="FL330" unicode="&#xe015;" horiz-adv-x="278" 
d="M92 521h90v-521h-90v521zM172 706h91v-102h-91v102zM11 706h91v-102h-91v102z" />
    <glyph glyph-name="FL331" unicode="&#xe016;" 
d="M64 523h84v-74q37 46 78.5 66t92.5 20q111 0 150 -78q22 -42 22 -122v-335h-90v330q0 47 -14 77q-23 49 -85 49q-31 0 -51 -7q-36 -11 -63 -43q-22 -26 -29 -53.5t-7 -78.5v-274h-88v523zM295 685q14 -6 25.5 -9.5t22.5 -3.5q28 0 39 17q7 10 9 28h51q-10 -62 -39 -85.5
t-64 -23.5q-10 0 -27 4t-29 9l-26 9q-23 9 -37.5 13t-28.5 4q-17 0 -27.5 -11t-14.5 -34h-48q6 38 21 63q28 44 82 44q17 0 37 -4.5t54 -19.5z" />
    <glyph glyph-name="FL333" unicode="&#xe017;" 
d="M424 270q0 73 -23 119q-37 72 -128 72q-81 0 -117.5 -61.5t-36.5 -148.5q0 -83 36.5 -138.5t116.5 -55.5q87 0 119.5 66t32.5 147zM516 272q0 -126 -61.5 -208.5t-190.5 -82.5q-108 0 -171.5 73t-63.5 196q0 132 67 210t179 78q101 0 171 -67.5t70 -198.5zM403 733
l-131 -141h-67l89 141h109z" />
    <glyph glyph-name="FL332" unicode="&#xe018;" 
d="M424 270q0 73 -23 119q-37 72 -128 72q-81 0 -117.5 -61.5t-36.5 -148.5q0 -83 36.5 -138.5t116.5 -55.5q87 0 119.5 66t32.5 147zM516 272q0 -126 -61.5 -208.5t-190.5 -82.5q-108 0 -171.5 73t-63.5 196q0 132 67 210t179 78q101 0 171 -67.5t70 -198.5zM339 592h-67
l-130 141h108z" />
    <glyph glyph-name="FL334" unicode="&#xe019;" 
d="M424 270q0 73 -23 119q-37 72 -128 72q-81 0 -117.5 -61.5t-36.5 -148.5q0 -83 36.5 -138.5t116.5 -55.5q87 0 119.5 66t32.5 147zM516 272q0 -126 -61.5 -208.5t-190.5 -82.5q-108 0 -171.5 73t-63.5 196q0 132 67 210t179 78q101 0 171 -67.5t70 -198.5zM318 733
l100 -141h-80l-66 94l-66 -94h-79l99 141h92z" />
    <glyph glyph-name="FL336" unicode="&#xe01a;" 
d="M424 270q0 73 -23 119q-37 72 -128 72q-81 0 -117.5 -61.5t-36.5 -148.5q0 -83 36.5 -138.5t116.5 -55.5q87 0 119.5 66t32.5 147zM516 272q0 -126 -61.5 -208.5t-190.5 -82.5q-108 0 -171.5 73t-63.5 196q0 132 67 210t179 78q101 0 171 -67.5t70 -198.5zM307 706h91
v-102h-91v102zM146 706h91v-102h-91v102z" />
    <glyph glyph-name="FL335" unicode="&#xe01b;" 
d="M424 270q0 73 -23 119q-37 72 -128 72q-81 0 -117.5 -61.5t-36.5 -148.5q0 -83 36.5 -138.5t116.5 -55.5q87 0 119.5 66t32.5 147zM516 272q0 -126 -61.5 -208.5t-190.5 -82.5q-108 0 -171.5 73t-63.5 196q0 132 67 210t179 78q101 0 171 -67.5t70 -198.5zM296 685
q14 -6 25.5 -9.5t22.5 -3.5q28 0 39 17q7 10 9 28h51q-10 -62 -39 -85.5t-64 -23.5q-10 0 -27 4t-29 9l-26 9q-23 9 -37.5 13t-28.5 4q-17 0 -27.5 -11t-14.5 -34h-48q6 38 21 63q28 44 82 44q17 0 37 -4.5t54 -19.5z" />
    <glyph glyph-name="FL338" unicode="&#xe01c;" 
d="M152 523v-347q0 -40 13 -66q23 -47 87 -47q92 0 125 83q19 43 19 120v257h87v-523h-83l1 77q-17 -30 -42 -50q-50 -41 -122 -41q-112 0 -153 75q-21 40 -21 106v356h89zM404 733l-131 -141h-67l89 141h109z" />
    <glyph glyph-name="FL337" unicode="&#xe01d;" 
d="M152 523v-347q0 -40 13 -66q23 -47 87 -47q92 0 125 83q19 43 19 120v257h87v-523h-83l1 77q-17 -30 -42 -50q-50 -41 -122 -41q-112 0 -153 75q-21 40 -21 106v356h89zM340 592h-67l-130 141h108z" />
    <glyph glyph-name="FL339" unicode="&#xe01e;" 
d="M152 523v-347q0 -40 13 -66q23 -47 87 -47q92 0 125 83q19 43 19 120v257h87v-523h-83l1 77q-17 -30 -42 -50q-50 -41 -122 -41q-112 0 -153 75q-21 40 -21 106v356h89zM319 733l100 -141h-80l-66 94l-66 -94h-79l99 141h92z" />
    <glyph glyph-name="FL340" unicode="&#xe01f;" 
d="M152 523v-347q0 -40 13 -66q23 -47 87 -47q92 0 125 83q19 43 19 120v257h87v-523h-83l1 77q-17 -30 -42 -50q-50 -41 -122 -41q-112 0 -153 75q-21 40 -21 106v356h89zM308 706h91v-102h-91v102zM147 706h91v-102h-91v102z" />
    <glyph glyph-name="FL456" unicode="&#xe098;" 
d="M39 430v77h189v210h93v-210h189v-77h-189v-590h-93v590h-189z" />
    <glyph glyph-name="FL489" unicode="&#xe099;" horiz-adv-x="400" 
d="M349 552q0 -64 -44 -106t-103 -42q-65 0 -106.5 44t-41.5 102q0 63 44 106t104 43q62 0 104.5 -43t42.5 -104zM202 457q38 0 66 27.5t28 67.5q0 38 -27.5 66t-66.5 28q-38 0 -66.5 -28t-28.5 -67q0 -38 28 -66t67 -28z" />
    <glyph glyph-name="FL477" unicode="&#xe09a;" 
d="M166 131q15 -32 45 -54l108 379q-6 2 -13.5 3t-19.5 1q-62 0 -104 -56t-42 -149q0 -76 26 -124zM340 533l26 90h40l-27 -99q59 -24 91.5 -69t38.5 -110h-82q-5 29 -20 57q-17 30 -50 42l-108 -383q9 -3 16.5 -4.5t22.5 -1.5q66 0 103 46q22 27 37 82h85q-15 -73 -51 -121
q-63 -83 -182 -83q-18 0 -29 2t-24 5l-31 -101h-41l33 113q-75 34 -106 102.5t-31 153.5q0 125 64.5 204.5t180.5 79.5q10 0 21.5 -1t22.5 -4z" />
    <glyph glyph-name="FL478" unicode="&#xe09b;" 
d="M32 58q55 38 89 84.5t34 101.5q0 16 -7 37q-3 13 -13 36h-108v51h77q0 -3 -16.5 30t-21.5 48q-5 14 -8.5 33t-3.5 41q0 76 62 136t178 60q109 0 165 -59.5t57 -168.5h-90q0 74 -34.5 112.5t-104.5 38.5q-69 0 -104 -36t-35 -87q0 -26 11 -52.5t47 -95.5h160v-51h-138
q4 -23 6.5 -35.5t2.5 -26.5q0 -48 -29.5 -96t-91.5 -95q33 18 66 28t64 10q35 0 93 -17.5t76 -17.5q23 0 42 9q12 5 36 22l40 -66q-27 -22 -49 -32q-35 -17 -75 -17q-30 0 -99 22t-109 22q-37 0 -70 -12q-20 -8 -50 -26z" />
    <glyph glyph-name="FL482" unicode="&#xe09c;" 
d="M271 718q118 0 162 -78q24 -40 25 -105h-85q-4 46 -17 68q-23 40 -80 40q-46 0 -70 -21.5t-24 -58.5q0 -21 9 -37.5t27 -29.5q36 -25 128 -77q164 -91 164 -194q0 -58 -35 -101q-20 -25 -68 -60q26 -23 40 -51.5t14 -60.5q0 -66 -51 -114t-138 -48q-115 0 -161 74
q-25 40 -30 113h86q4 -48 18 -70q23 -41 81 -41q38 0 61 10q43 20 43 72q0 23 -13 42q-8 10 -22 22q-8 7 -51 36q-25 17 -48 33l-87 58q-52 34 -74 60q-38 43 -38 97q0 47 28.5 85t75.5 67q-21 19 -33 42q-13 28 -13 60q0 71 48.5 119.5t127.5 48.5zM357 105q29 17 43 33
q24 29 24 71q0 39 -26 65q-16 17 -65 47l-142 87q-29 -15 -43 -30q-25 -27 -25 -66q0 -21 6 -38q12 -29 45 -51z" />
    <glyph glyph-name="FL467" unicode="&#xe09d;" horiz-adv-x="350" 
d="M357 358q0 -46 -30.5 -77t-77.5 -31t-77.5 31t-30.5 77q0 47 30.5 77.5t77.5 30.5t77.5 -30.5t30.5 -77.5z" />
    <glyph glyph-name="FL495" unicode="&#xe09e;" horiz-adv-x="537" 
d="M459 -177h-72v838h-113v-838h-71v434q-104 1 -156 72t-52 157q0 72 35 129q63 102 209 102h281v-56h-61v-838z" />
    <glyph glyph-name="FL535" unicode="&#xe09f;" horiz-adv-x="611" 
d="M97 500q0 140 75 194q50 34 124 34q101 0 155 -49t54 -130q0 -56 -22.5 -93.5t-58.5 -55.5q45 -11 75 -48q41 -47 41 -132q0 -96 -55 -165t-155 -69q-24 0 -35.5 1t-28.5 4v76q12 -2 21.5 -3t22.5 -1q52 0 95.5 33.5t43.5 118.5q0 82 -56 118q-35 21 -81 21q-8 0 -19 -1
l-22 -2v78q8 -1 13 -1.5t10 -0.5q71 0 98 36t27 75q0 50 -29.5 81.5t-88.5 31.5q-75 0 -101 -54q-15 -31 -15 -97v-500h-88v500z" />
    <glyph glyph-name="FL488" unicode="&#xe0a0;" horiz-adv-x="737" 
d="M150 578q-90 -90 -90 -218q0 -129 89 -220q90 -91 219 -91q128 0 218 91t90 220q0 128 -90 218q-90 91 -218 91t-218 -91zM622 105q-105 -105 -254 -105t-254 105q-104 105 -104 255q0 148 105 253q105 104 253 104q149 0 254 -104q105 -105 105 -253q0 -149 -105 -255z
M352 510h-60v-142h63q44 0 66 8q40 17 40 62q0 43 -26 57.5t-83 14.5zM361 558q73 0 107 -15q61 -25 61 -99q0 -53 -38 -78q-21 -13 -57 -19q46 -7 67.5 -38.5t21.5 -60.5v-29q0 -14 1 -29.5t3 -20.5l3 -5h-65q-1 2 -1.5 4t-0.5 4l-2 13v31q0 69 -37 91q-22 12 -77 12h-55
v-155h-69v394h138z" />
    <glyph glyph-name="FL484" unicode="&#xe0a1;" horiz-adv-x="737" 
d="M377 151q-81 0 -138 58t-57 153q0 90 51.5 150t134.5 60q52 0 94 -21q73 -38 80 -125h-60q-4 36 -30.5 63t-76.5 27q-71 0 -103 -63q-20 -41 -20 -88q0 -67 33 -112.5t95 -45.5q40 0 67 21.5t38 61.5h59q-11 -66 -57 -102.5t-110 -36.5zM150 578q-89 -90 -89 -218
q0 -129 89 -220q90 -91 218 -91t217 91t89 220q0 128 -89 218q-89 91 -217 91t-218 -91zM622 105q-105 -105 -254 -105t-254 105q-105 106 -105 255q0 148 105 253q105 104 254 104t254 -104q105 -105 105 -253q0 -149 -105 -255z" />
    <glyph glyph-name="FL471" unicode="&#xe0a2;" horiz-adv-x="1000" 
d="M579 717l90 -253l91 253h101v-354h-65v286l-98 -286h-57l-99 286v-286h-64v354h101zM116 658v59h301v-59h-115v-295h-71v295h-115z" />
    <glyph glyph-name="FL493" unicode="&#xe0a3;" horiz-adv-x="333" 
d="M237 733l-131 -141h-67l89 141h109z" />
    <glyph glyph-name="FL483" unicode="&#xe0a4;" horiz-adv-x="333" 
d="M141 706h91v-102h-91v102zM-20 706h91v-102h-91v102z" />
    <glyph glyph-name="notequal" unicode="&#x2260;" horiz-adv-x="549" 
d="M554 401v-82h-183l-57 -127h240v-84h-277l-53 -117h-85l53 117h-147v84h184l57 127h-241v82h278l52 119h85l-52 -119h146z" />
    <glyph glyph-name="FL510" unicode="&#xe0a5;" horiz-adv-x="1000" 
d="M360 634l-133 -339h230v339h-97zM299 717h643v-85h-389v-220h357v-81h-357v-246h398v-85h-494v213h-264l-80 -213h-105z" />
    <glyph glyph-name="FL528" unicode="&#xe0a6;" horiz-adv-x="778" 
d="M396 66q131 0 195 109q48 81 48 195q0 63 -19 116q-10 29 -30 63l-376 -413q33 -34 73 -52t109 -18zM64 -17l-32 30l86 88q-40 52 -59.5 117t-19.5 137q0 148 76 254q93 128 266 128q87 0 147 -21.5t100 -59.5l76 81l31 -30l-77 -84q28 -35 51 -87q29 -72 29 -165
q0 -178 -100 -286q-97 -106 -250 -106q-92 0 -159 31q-42 19 -82 57zM503 625q-50 25 -115 25q-110 0 -179 -76.5t-69 -224.5q0 -47 9.5 -94t35.5 -85l378 413q-32 29 -60 42z" />
    <glyph glyph-name="infinity" unicode="&#x221e;" horiz-adv-x="713" 
d="M513 471q-45 0 -80.5 -48t-35.5 -63q0 -16 36.5 -66.5t80.5 -50.5t69.5 33t25.5 84q0 47 -25.5 79t-70.5 32zM189 241q45 0 84.5 53.5t39.5 69.5q0 11 -42.5 59.5t-85.5 48.5q-37 0 -62.5 -32t-25.5 -86q0 -55 28.5 -84t63.5 -29zM347 274q-25 -42 -50 -65
q-47 -42 -108 -42q-75 0 -121.5 53t-46.5 138q0 79 44.5 135t121.5 56q49 0 88.5 -29.5t72.5 -95.5q32 59 62 85q45 41 109 41q78 0 121.5 -57.5t43.5 -132.5q0 -77 -43 -135t-119 -58q-59 0 -101 38q-37 32 -64 87z" />
    <glyph glyph-name="FL490" unicode="&#xe0a7;" horiz-adv-x="549" 
d="M554 79v-79h-509v79h509zM45 272v77h213v161h83v-161h213v-77h-213v-155h-83v155h-213z" />
    <glyph glyph-name="lessequal" unicode="&#x2264;" horiz-adv-x="549" 
d="M553 0h-509v79h509v-79zM553 520v-88l-405 -125l405 -127v-88l-509 173v82z" />
    <glyph glyph-name="greaterequal" unicode="&#x2265;" horiz-adv-x="549" 
d="M45 520l509 -173v-82l-509 -173v88l405 127l-405 125v88zM554 79v-79h-509v79h509z" />
    <glyph glyph-name="FL480" unicode="&#xe0a8;" 
d="M94 686l178 -330l179 330h109l-129 -217h85v-67h-123l-63 -106h170v-66h-182v-230h-92v230h-178v66h166l-63 106h-126v67h88l-128 217h109z" />
    <glyph glyph-name="FL494" unicode="&#xe0a9;" horiz-adv-x="576" 
d="M211 522l-79 -370q-2 -8 -3 -14t-1 -13q0 -24 10 -38q17 -24 64 -24q71 0 120 52t64 121l63 286h89l-112 -522h-85l21 88q-11 -22 -46 -51q-60 -50 -133 -50q-23 0 -47 8t-35 19l-48 -220h-90l158 728h90z" />
    <glyph glyph-name="partialdiff" unicode="&#x2202;" horiz-adv-x="494" 
d="M252 58q52 0 89.5 53t37.5 118q0 59 -31.5 91.5t-73.5 32.5q-56 0 -91.5 -52t-35.5 -113q0 -58 31 -94t74 -36zM408 339q1 20 1.5 38.5t0.5 28.5q0 66 -13 127q-25 122 -90 122q-17 0 -30 -7t-26 -19l-63 78q27 15 44 21q29 10 61 10q103 0 159 -109q49 -95 49 -247
t-63 -267q-75 -133 -202 -133q-81 0 -132.5 61t-51.5 151q0 87 58.5 165t152.5 78q54 0 88 -25t57 -73z" />
    <glyph glyph-name="summation" unicode="&#x2211;" horiz-adv-x="713" 
d="M20 -64l313 357l-302 340v84h532v-84h-415l302 -340l-311 -355h440v-84h-559v82z" />
    <glyph glyph-name="product" unicode="&#x220f;" horiz-adv-x="823" 
d="M709 717v-84h-86v-779h-99v779h-326v-779h-98v779h-86v84h695z" />
    <glyph glyph-name="pi" unicode="&#x3c0;" horiz-adv-x="549" 
d="M583 444h-86v-318q0 -28 7.5 -40.5t36.5 -12.5q6 0 8.5 0.5t18.5 2.5v-74l-21 -2q-17 -1 -23 -1.5t-14 -0.5q-44 0 -65 12q-39 24 -39 91v343h-209v-444h-90v444h-86v77h562v-77z" />
    <glyph glyph-name="integral" unicode="&#x222b;" horiz-adv-x="274" 
d="M262 661q38 93 135 93q21 0 40 -4q12 -2 32 -9l-8 -79q-20 8 -32 12t-24 4q-44 0 -60 -44q-17 -45 -22 -155l-16 -333q-9 -178 -46 -264q-38 -87 -137 -87q-20 0 -34.5 3.5t-28.5 8.5l7 81q13 -6 24.5 -10t25.5 -4q42 0 63 38q20 37 26 136l25 431q8 128 30 182z" />
    <glyph glyph-name="FL485" unicode="&#xe0aa;" horiz-adv-x="370" 
d="M242 570q-23 -10 -78 -17q-61 -13 -61 -53q0 -21 12 -32t37 -11q40 0 65 18t25 58v37zM214 606q12 2 20.5 7.5t8.5 21.5q0 26 -15.5 38t-50.5 12t-50.5 -14t-18.5 -37h-62q4 49 34.5 76t107.5 27q75 0 105 -35q20 -24 20 -66v-154q0 -10 3.5 -16t17.5 -6q3 0 17 1v-51
q-11 -3 -21 -4.5t-20 -1.5q-26 0 -38.5 14t-14.5 36q-25 -29 -58.5 -39.5t-61.5 -10.5q-54 0 -81 28.5t-27 66.5q0 51 43 77q24 14 64 20z" />
    <glyph glyph-name="FL498" unicode="&#xe0ab;" horiz-adv-x="365" 
d="M342 572q0 -73 -40.5 -120.5t-119.5 -47.5q-91 0 -131 65q-27 43 -27 99q0 55 27 100q43 69 136 69q69 0 112 -41.5t43 -123.5zM95 565q0 -43 20 -74t64 -31q55 0 78 47q14 28 14 65q0 54 -25 81t-60 27q-43 0 -67 -29.5t-24 -85.5z" />
    <glyph glyph-name="Omega" unicode="&#x3a9;" horiz-adv-x="768" 
d="M126 619q90 118 261 118q179 0 270 -110q75 -91 75 -235q0 -119 -48.5 -195t-116.5 -111h172v-86h-284v86q75 44 111 91q66 83 66 215q0 126 -67.5 192t-176.5 66q-114 0 -174 -75.5t-60 -173.5q0 -116 57 -201.5t122 -113.5v-86h-287v86h174q-67 48 -103 97
q-63 88 -63 207q0 133 72 229z" />
    <glyph glyph-name="Omega" unicode="&#x2126;" horiz-adv-x="768" 
d="M126 619q90 118 261 118q179 0 270 -110q75 -91 75 -235q0 -119 -48.5 -195t-116.5 -111h172v-86h-284v86q75 44 111 91q66 83 66 215q0 126 -67.5 192t-176.5 66q-114 0 -174 -75.5t-60 -173.5q0 -116 57 -201.5t122 -113.5v-86h-287v86h174q-67 48 -103 97
q-63 88 -63 207q0 133 72 229z" />
    <glyph glyph-name="FL542" unicode="&#xe0ac;" horiz-adv-x="889" 
d="M753 303q-1 77 -42 116t-99 39q-59 0 -101.5 -39t-46.5 -116h289zM382 266q-12 -8 -24 -12.5t-42 -9.5l-74 -12q-54 -8 -78 -22q-39 -22 -39 -70q0 -41 31.5 -63t72.5 -22q24 0 56 12.5t59 37.5q24 22 31 46q4 15 7 49v66zM334 317q25 3 37.5 17.5t12.5 40.5
q0 42 -27.5 63.5t-87.5 21.5q-49 0 -78 -15q-49 -29 -49 -83h-84q5 110 86 151q47 23 129 23q65 0 111 -24q39 -21 60 -55q29 38 72 58.5t97 20.5q57 0 105.5 -20.5t80.5 -67.5q29 -39 38.5 -90t9.5 -125h-384q2 -81 40 -128t105 -47q64 0 97 27.5t46 78.5h89
q-5 -39 -33 -80.5t-59 -61.5q-35 -22 -70 -30.5t-73 -8.5q-72 0 -127 37q-51 37 -65 74q-40 -59 -91 -85t-111 -26q-84 0 -129.5 41.5t-45.5 108.5q0 87 59 130q37 27 100 35z" />
    <glyph glyph-name="FL560" unicode="&#xe0ad;" horiz-adv-x="611" 
d="M302 461q-71 0 -113.5 -59t-42.5 -152q0 -36 7 -68q4 -18 14 -46l246 276q-14 21 -44 35t-67 14zM298 57q92 0 131 87q23 52 23 120q0 44 -7 75q-4 17 -13 40l-243 -275q24 -28 52 -37.5t57 -9.5zM45 2l62 66q-24 36 -37 81t-13 106q0 111 61.5 197.5t179.5 86.5
q62 0 108 -23q28 -13 63 -43l61 69l25 -24l-62 -70q30 -45 44 -103q8 -38 8 -75q0 -126 -68 -208t-181 -82q-53 0 -95 16t-68 43l-59 -62z" />
    <glyph glyph-name="FL503" unicode="&#xe0ae;" horiz-adv-x="611" 
d="M266 525h97v-102h-97v102zM208 183q44 44 55 74t11 85h87q0 -74 -14.5 -109t-81.5 -106l-38 -41q-26 -26 -34.5 -49t-8.5 -43q0 -50 31.5 -84.5t97.5 -34.5q74 0 105 55q18 31 23 102h84q2 -120 -62 -176.5t-154 -56.5q-91 0 -154.5 50t-63.5 139q0 49 23 86t71 86z" />
    <glyph glyph-name="FL476" unicode="&#xe0af;" horiz-adv-x="333" 
d="M113 523h100v-102h-100v102zM113 42l26 310h49l25 -310v-236h-100v236z" />
    <glyph glyph-name="FL487" unicode="&#xe0b0;" horiz-adv-x="584" 
d="M554 401v-293h-82v211h-427v82h509z" />
    <glyph glyph-name="radical" unicode="&#x221a;" horiz-adv-x="549" 
d="M263 -18l-152 444l-93 -57l-26 50l171 97l135 -406l279 820h72l-323 -948h-63z" />
    <glyph glyph-name="FL453" unicode="&#xe0b1;" 
d="M35 -112q11 -6 23 -10t25 -4q50 0 74 49q15 31 32 125l64 343h-110v69h124q25 116 31.5 139.5t23.5 56.5q26 42 61 61t77 19q21 0 38.5 -3.5t32.5 -10.5l-15 -79q-21 9 -32.5 13t-22.5 4q-41 0 -61.5 -39t-42.5 -161h115v-69h-127l-44 -245q-33 -183 -64 -247
q-50 -104 -156 -104q-22 0 -36 3.5t-25 8.5z" />
    <glyph glyph-name="approxequal" unicode="&#x2248;" horiz-adv-x="549" 
d="M45 375q38 34 66 46.5t66 12.5q47 0 127.5 -36.5t114.5 -36.5q48 0 93 32q27 18 42 39v-94q-19 -18 -46 -32q-44 -24 -87 -24q-12 0 -32 3t-36 9q-9 3 -77 32q-33 15 -50 21q-27 8 -51 8q-42 0 -76 -22q-21 -14 -54 -48v90zM45 169q38 34 66 46.5t66 12.5
q47 0 127.5 -36.5t114.5 -36.5q44 0 78.5 22t56.5 49v-94q-33 -27 -65 -41.5t-68 -14.5q-15 0 -34 3.5t-34 8.5q-11 4 -77 32q-33 15 -50 21q-27 8 -51 8q-43 0 -78 -23q-21 -14 -52 -47v90z" />
    <glyph glyph-name="Delta" unicode="&#x2206;" horiz-adv-x="612" 
d="M667 0h-612l252 717h105zM546 80l-189 544l-180 -544h369z" />
    <glyph glyph-name="FL486" unicode="&#xe0b2;" 
d="M299 319l158 123v-88l-105 -81l105 -81v-88l-158 123v92zM95 319l157 123v-88l-105 -81l105 -81v-88l-157 123v92z" />
    <glyph glyph-name="FL499" unicode="&#xe0b3;" 
d="M299 192l103 81l-103 81v88l158 -123v-92l-158 -123v88zM95 192l103 81l-103 81v88l157 -123v-92l-157 -123v88z" />
    <glyph glyph-name="FL455" unicode="&#xe0b4;" horiz-adv-x="1000" 
d="M449 0v107h102v-107h-102zM116 107h101v-107h-101v107zM782 0v107h102v-107h-102z" />
    <glyph glyph-name="FL293" unicode="&#xe020;" horiz-adv-x="667" 
d="M444 294l-109 317l-115 -317h224zM285 717h110l260 -717h-107l-72 215h-284l-78 -215h-99zM402 774h-67l-130 141h108z" />
    <glyph glyph-name="FL296" unicode="&#xe021;" horiz-adv-x="667" 
d="M444 294l-109 317l-115 -317h224zM285 717h110l260 -717h-107l-72 215h-284l-78 -215h-99zM358 867q14 -6 25.5 -9.5t22.5 -3.5q28 0 39 17q7 10 9 28h51q-10 -62 -39 -85.5t-64 -23.5q-10 0 -27 4t-29 9l-26 9q-23 9 -37.5 13t-28.5 4q-17 0 -27.5 -11t-14.5 -34h-48
q6 38 21 63q28 44 82 44q17 0 37 -4.5t54 -19.5z" />
    <glyph glyph-name="FL311" unicode="&#xe022;" horiz-adv-x="778" 
d="M667 615q71 -95 71 -244q0 -161 -81 -267q-96 -125 -273 -125q-166 0 -260 109q-85 106 -85 267q0 145 72 249q93 133 275 133q190 0 281 -122zM639 370q0 126 -66.5 203t-180.5 77q-112 0 -182 -76t-70 -225q0 -120 60 -201.5t196 -81.5q128 0 185.5 92t57.5 212z
M412 886q14 -6 25.5 -9.5t22.5 -3.5q28 0 39 17q7 10 9 28h51q-10 -62 -39 -85.5t-64 -23.5q-10 0 -27 4t-29 9l-26 9q-23 9 -37.5 13t-28.5 4q-17 0 -27.5 -11t-14.5 -34h-48q6 38 21 63q28 44 82 44q17 0 37 -4.5t54 -19.5z" />
    <glyph glyph-name="FL462" unicode="&#xe0b5;" horiz-adv-x="1000" 
d="M517 239v253q0 75 -49.5 118.5t-121.5 43.5q-125 0 -178 -118q-34 -77 -34 -188q0 -124 51.5 -204.5t164.5 -80.5q61 0 114 40.5t53 135.5zM523 645v72h440v-85h-347v-220h330v-83h-330v-244h349v-85h-443v75q-22 -38 -71.5 -64.5t-129.5 -26.5q-109 0 -197 92
q-88 101 -88 276q0 144 61 246q80 135 245 135q62 0 108.5 -23.5t72.5 -64.5z" />
    <glyph glyph-name="FL474" unicode="&#xe0b6;" horiz-adv-x="944" 
d="M282 537q83 0 137 -40q30 -22 57 -63q31 48 81 75t113 27q59 0 106 -24t79 -70q30 -43 40 -99q5 -35 6 -110h-387q2 -64 22 -104q37 -75 131 -75q66 0 105 45q21 24 36 65h88q-21 -86 -83.5 -135.5t-146.5 -49.5q-58 0 -108.5 23t-91.5 83q-34 -59 -84.5 -82t-106.5 -23
q-101 0 -170.5 69.5t-69.5 205.5q0 121 65 201.5t182 80.5zM810 301q-4 56 -24 92q-36 65 -123 65q-44 0 -81 -26q-58 -40 -67 -131h295zM432 268q0 96 -43 144t-110 48q-65 0 -109.5 -51.5t-44.5 -158.5q0 -90 43.5 -142.5t112.5 -52.5q55 0 103 46.5t48 166.5z" />
    <glyph glyph-name="FL468" unicode="&#xe0b7;" 
d="M-2 313h560v-72h-560v72z" />
    <glyph glyph-name="FL469" unicode="&#xe0b8;" horiz-adv-x="1000" 
d="M118 313h764v-72h-764v72z" />
    <glyph glyph-name="FL465" unicode="&#xe0b9;" horiz-adv-x="333" 
d="M142 678q-34 -6 -47 -49q-7 -21 -7 -41v-4.5t1 -7.5h53v-106h-104v98q0 72 29 111t75 45v-46zM307 678q-27 -4 -41 -30t-14 -60v-5.5t1 -6.5h54v-106h-105v98q0 58 24.5 103.5t80.5 52.5v-46z" />
    <glyph glyph-name="FL466" unicode="&#xe0ba;" horiz-adv-x="333" 
d="M202 509q37 7 48 54q7 27 5 48h-53v106h105v-98q0 -58 -24 -103.5t-81 -52.5v46zM38 509q37 7 49 54q7 27 4 48h-53v106h104v-98q0 -58 -24 -103t-80 -53v46z" />
    <glyph glyph-name="FL463" unicode="&#xe0bb;" horiz-adv-x="222" 
d="M169 678q-27 -4 -41 -30t-14 -60q0 -3 0.5 -5.5t1.5 -6.5h53v-106h-105v98q0 58 24.5 103.5t80.5 52.5v-46z" />
    <glyph glyph-name="FL464" unicode="&#xe0bc;" horiz-adv-x="222" 
d="M83 509q27 4 41 30t14 60q0 3 -0.5 5.5t-1.5 6.5h-53v106h105v-98q0 -62 -26 -106t-79 -50v46z" />
    <glyph glyph-name="FL559" unicode="&#xe0bd;" horiz-adv-x="549" 
d="M249 10v108h103v-108h-103zM554 296v-82h-509v82h509zM352 500v-108h-103v108h103z" />
    <glyph glyph-name="lozenge" unicode="&#x25ca;" horiz-adv-x="494" 
d="M249 737l217 -374l-217 -384l-217 384zM249 607l-143 -244l143 -255l142 255z" />
    <glyph glyph-name="FL341" unicode="&#xe023;" horiz-adv-x="500" 
d="M391 523h97q-18 -50 -82 -230q-48 -134 -80 -219q-76 -200 -107.5 -244t-107.5 -44q-19 0 -29 1.5t-24 5.5v80q23 -6 33 -7.5t18 -1.5q24 0 35.5 8t19.5 20q3 4 18 40t22 53l-194 538h100l140 -426zM284 706h91v-102h-91v102zM123 706h91v-102h-91v102z" />
    <glyph glyph-name="FL292" unicode="&#xe024;" horiz-adv-x="667" 
d="M21 717h113l206 -344l206 344h114l-271 -428v-289h-97v289zM376 888h91v-102h-91v102zM215 888h91v-102h-91v102z" />
    <glyph glyph-name="fraction1" unicode="&#x2044;" horiz-adv-x="167" 
d="M264 699h66l-431 -717h-66z" />
    <glyph glyph-name="FL479" unicode="&#xe0be;" 
d="M274 201q58 0 100.5 41t42.5 102t-42.5 102t-100.5 41q-60 0 -102 -41.5t-42 -101.5q0 -59 42 -101t102 -42zM37 535l46 46l67 -67q28 20 57 30.5t63 10.5q40 0 70.5 -11t56.5 -31l67 68l46 -46l-68 -69q22 -28 33 -59t11 -67q0 -28 -9.5 -59t-34.5 -60l68 -67l-46 -47
l-67 66q-28 -21 -58 -31.5t-64 -10.5q-30 0 -60 9t-65 34l-67 -68l-46 48l68 67q-21 26 -31.5 56.5t-10.5 63.5q0 41 12 71.5t30 56.5z" />
    <glyph glyph-name="FL461" unicode="&#xe0bf;" horiz-adv-x="333" 
d="M88 319l157 123v-88l-105 -81l105 -81v-88l-157 123v92z" />
    <glyph glyph-name="FL473" unicode="&#xe0c0;" horiz-adv-x="333" 
d="M83 192l105 81l-105 81v88l158 -123v-92l-158 -123v88z" />
    <glyph glyph-name="FL352" unicode="&#xe0c1;" horiz-adv-x="500" 
d="M105 683q31 45 119 45q8 0 17 -0.5t20 -1.5v-80q-13 0 -19.5 0.5t-11.5 0.5q-40 0 -48 -21t-8 -105h87v-70h-88v-451h-87v451h-72v70h72v82q2 54 19 80zM346 618v99h88v-99h-88zM346 521h88v-521h-88v521z" />
    <glyph glyph-name="FL353" unicode="&#xe0c2;" horiz-adv-x="500" 
d="M432 0h-88v717h88v-717zM173 0h-87v451h-72v70h72v92q0 58 36 86.5t96 28.5q12 0 21.5 -1t21.5 -3v-78q-13 0 -19.5 0.5t-11.5 0.5q-37 0 -49 -22q-8 -12 -8 -40v-64h88v-70h-88v-451z" />
    <glyph glyph-name="FL457" unicode="&#xe0c3;" 
d="M39 42v77h189v319h-189v77h189v202h93v-202h189v-77h-189v-319h189v-77h-189v-202h-93v202h-189z" />
    <glyph glyph-name="FL452" unicode="&#xe0c4;" horiz-adv-x="222" 
d="M83 -102q34 6 47 48q8 22 8 42q0 4 -0.5 6.5t-1.5 5.5h-53v106h105v-98q0 -58 -23.5 -102t-81.5 -54v46z" />
    <glyph glyph-name="FL454" unicode="&#xe0c5;" horiz-adv-x="333" 
d="M202 -102q34 6 48 48q7 22 7 42q0 4 -0.5 6.5t-1.5 5.5h-53v106h105v-98q0 -56 -23 -100.5t-82 -55.5v46zM38 -102q30 6 43.5 35.5t9.5 66.5h-53v106h104v-98q0 -56 -21.5 -100.5t-82.5 -55.5v46z" />
    <glyph glyph-name="FL459" unicode="&#xe0c6;" horiz-adv-x="1000" 
d="M838 55q39 0 66.5 27.5t27.5 66.5t-27.5 66.5t-66.5 27.5t-66.5 -27.5t-27.5 -66.5t27.5 -66.5t66.5 -27.5zM838 305q64 0 110 -45.5t46 -110.5t-46 -110.5t-110 -45.5q-65 0 -110.5 45.5t-45.5 110.5t45.5 110.5t110.5 45.5zM469 55q38 0 66 27.5t28 66.5t-28 66.5
t-66 27.5q-39 0 -66.5 -27.5t-27.5 -66.5t27.5 -66.5t66.5 -27.5zM625 149q0 -65 -46 -110.5t-110 -45.5q-65 0 -110.5 45.5t-45.5 110.5t45.5 110.5t110.5 45.5q64 0 110 -45.5t46 -110.5zM495 724h54l-411 -749h-55zM163 466q39 0 66.5 27.5t27.5 66.5t-27.5 66.5
t-66.5 27.5q-38 0 -66 -27.5t-28 -66.5t28 -66.5t66 -27.5zM163 716q65 0 110.5 -45.5t45.5 -110.5t-45.5 -110.5t-110.5 -45.5t-110.5 45.5t-45.5 110.5t45.5 110.5t110.5 45.5z" />
    <glyph glyph-name="FL295" unicode="&#xe025;" horiz-adv-x="667" 
d="M444 294l-109 317l-115 -317h224zM285 717h110l260 -717h-107l-72 215h-284l-78 -215h-99zM381 915l100 -141h-80l-66 94l-66 -94h-79l99 141h92z" />
    <glyph glyph-name="FL301" unicode="&#xe026;" horiz-adv-x="667" 
d="M85 717h523v-88h-428v-217h396v-83h-396v-244h436v-85h-531v717zM397 915l100 -141h-80l-66 94l-66 -94h-79l99 141h92z" />
    <glyph glyph-name="FL294" unicode="&#xe027;" horiz-adv-x="667" 
d="M444 294l-109 317l-115 -317h224zM285 717h110l260 -717h-107l-72 215h-284l-78 -215h-99zM466 915l-131 -141h-67l89 141h109z" />
    <glyph glyph-name="FL302" unicode="&#xe028;" horiz-adv-x="667" 
d="M85 717h523v-88h-428v-217h396v-83h-396v-244h436v-85h-531v717zM385 888h91v-102h-91v102zM224 888h91v-102h-91v102z" />
    <glyph glyph-name="FL299" unicode="&#xe029;" horiz-adv-x="667" 
d="M85 717h523v-88h-428v-217h396v-83h-396v-244h436v-85h-531v717zM418 774h-67l-130 141h108z" />
    <glyph glyph-name="FL304" unicode="&#xe02a;" horiz-adv-x="278" 
d="M98 717h98v-717h-98v717zM278 915l-131 -141h-67l89 141h109z" />
    <glyph glyph-name="FL305" unicode="&#xe02b;" horiz-adv-x="278" 
d="M98 717h98v-717h-98v717zM193 915l100 -141h-80l-66 94l-66 -94h-79l99 141h92z" />
    <glyph glyph-name="FL306" unicode="&#xe02c;" horiz-adv-x="278" 
d="M98 717h98v-717h-98v717zM182 888h91v-102h-91v102zM21 888h91v-102h-91v102z" />
    <glyph glyph-name="FL303" unicode="&#xe02d;" horiz-adv-x="278" 
d="M98 717h98v-717h-98v717zM214 774h-67l-130 141h108z" />
    <glyph glyph-name="FL309" unicode="&#xe02e;" horiz-adv-x="778" 
d="M667 615q71 -95 71 -244q0 -161 -81 -267q-96 -125 -273 -125q-166 0 -260 109q-85 106 -85 267q0 145 72 249q93 133 275 133q190 0 281 -122zM639 370q0 126 -66.5 203t-180.5 77q-112 0 -182 -76t-70 -225q0 -120 60 -201.5t196 -81.5q128 0 185.5 92t57.5 212z
M519 934l-131 -141h-67l89 141h109z" />
    <glyph glyph-name="FL310" unicode="&#xe02f;" horiz-adv-x="778" 
d="M667 615q71 -95 71 -244q0 -161 -81 -267q-96 -125 -273 -125q-166 0 -260 109q-85 106 -85 267q0 145 72 249q93 133 275 133q190 0 281 -122zM639 370q0 126 -66.5 203t-180.5 77q-112 0 -182 -76t-70 -225q0 -120 60 -201.5t196 -81.5q128 0 185.5 92t57.5 212z
M435 934l100 -141h-80l-66 94l-66 -94h-79l99 141h92z" />
    <glyph glyph-name="apple" unicode="&#xf8ff;" horiz-adv-x="790" 
d="M356 588q22 0 72 17t87 17q60 0 107 -32q26 -19 52 -50q-39 -34 -57 -60q-33 -46 -33 -103q0 -62 34.5 -112t79.5 -63q-19 -60 -62 -125q-65 -98 -129 -98q-25 0 -69.5 16t-75.5 16t-71.5 -16.5t-66.5 -16.5q-77 0 -150 129q-74 128 -74 252q0 115 56.5 187t142.5 72
q36 0 88 -15t69 -15zM509 790q0 -32 -14.5 -69t-46.5 -69q-27 -27 -54 -36q-17 -5 -52 -8q1 74 39 128.5t125 74.5q2 -7 2.5 -12t0.5 -9z" />
    <glyph glyph-name="FL308" unicode="&#xe030;" horiz-adv-x="778" 
d="M667 615q71 -95 71 -244q0 -161 -81 -267q-96 -125 -273 -125q-166 0 -260 109q-85 106 -85 267q0 145 72 249q93 133 275 133q190 0 281 -122zM639 370q0 126 -66.5 203t-180.5 77q-112 0 -182 -76t-70 -225q0 -120 60 -201.5t196 -81.5q128 0 185.5 92t57.5 212z
M456 793h-67l-130 141h108z" />
    <glyph glyph-name="FL314" unicode="&#xe031;" horiz-adv-x="722" 
d="M182 717v-443q0 -78 29 -130q43 -78 146 -78q124 0 168 84q24 46 24 124v443h99v-403q0 -132 -36 -203q-65 -130 -247 -130q-181 0 -246 130q-36 71 -36 203v403h99zM496 915l-131 -141h-67l89 141h109z" />
    <glyph glyph-name="FL315" unicode="&#xe032;" horiz-adv-x="722" 
d="M182 717v-443q0 -78 29 -130q43 -78 146 -78q124 0 168 84q24 46 24 124v443h99v-403q0 -132 -36 -203q-65 -130 -247 -130q-181 0 -246 130q-36 71 -36 203v403h99zM412 915l100 -141h-80l-66 94l-66 -94h-79l99 141h92z" />
    <glyph glyph-name="FL313" unicode="&#xe033;" horiz-adv-x="722" 
d="M182 717v-443q0 -78 29 -130q43 -78 146 -78q124 0 168 84q24 46 24 124v443h99v-403q0 -132 -36 -203q-65 -130 -247 -130q-181 0 -246 130q-36 71 -36 203v403h99zM433 774h-67l-130 141h108z" />
    <glyph glyph-name="FL351" unicode="&#xe0c7;" horiz-adv-x="278" 
d="M92 521h90v-521h-90v521z" />
    <glyph glyph-name="FL326" unicode="&#xe036;" horiz-adv-x="333" 
d="M151 733l100 -141h-80l-66 94l-66 -94h-79l99 141h92z" />
    <glyph glyph-name="FL470" unicode="&#xe0c8;" horiz-adv-x="333" 
d="M128 685q14 -6 25.5 -9.5t22.5 -3.5q28 0 39 17q7 10 9 28h51q-10 -62 -39 -85.5t-64 -23.5q-10 0 -27 4t-29 9l-26 9q-23 9 -37.5 13t-28.5 4q-17 0 -27.5 -11t-14.5 -34h-48q6 38 21 63q28 44 82 44q17 0 37 -4.5t54 -19.5z" />
    <glyph glyph-name="FL345" unicode="&#xe0c9;" horiz-adv-x="333" 
d="M0 732q8 -31 23 -47q27 -29 85 -29q53 0 80 29q15 16 22 47h49q-10 -71 -51 -103t-110 -32q-86 0 -123 58q-20 31 -24 77h49z" />
    <glyph glyph-name="FL346" unicode="&#xe0ca;" horiz-adv-x="333" 
d="M60 706h91v-102h-91v102z" />
    <glyph glyph-name="FL347" unicode="&#xe0cb;" horiz-adv-x="333" 
d="M105 630q25 0 43.5 18.5t18.5 43.5t-18.5 43t-43.5 18t-43 -18t-18 -43t18 -43.5t43 -18.5zM105 794q42 0 72 -30t30 -72t-30 -72t-72 -30t-72 30t-30 72t30 72t72 30z" />
    <glyph glyph-name="FL496" unicode="&#xe0cc;" horiz-adv-x="333" 
d="M92 0h48l-46 -62q14 4 36 4q35 0 57 -19.5t22 -56.5t-29.5 -64t-89.5 -27q-26 0 -54 8q-15 4 -41 13l16 40q19 -7 29 -10q20 -5 36 -5q18 0 31 5q26 10 26 37q0 16 -13 27.5t-35 11.5q-10 0 -18.5 -2t-20.5 -6l-17 20z" />
    <glyph glyph-name="FL348" unicode="&#xe0cd;" horiz-adv-x="333" 
d="M199 733h105l-110 -142h-62zM37 733h105l-111 -142h-61z" />
    <glyph glyph-name="FL349" unicode="&#xe0ce;" horiz-adv-x="333" 
d="M193 0l-28 -23q-37 -29 -47 -44.5t-10 -34.5q0 -18 13 -31t38 -13q13 0 21.5 2t18.5 8v-64q-16 -7 -29 -10q-24 -7 -50 -7q-47 0 -72 27.5t-25 61.5q0 40 28 71q23 26 70 57h72z" />
    <glyph glyph-name="FL350" unicode="&#xe0cf;" horiz-adv-x="333" 
d="M151 592h-92l-99 141h79l66 -93l66 93h80z" />
    <glyph glyph-name="FL354" unicode="&#xe0d0;" 
d="M-11 237v74l87 55v351h97v-294l158 97v-77l-158 -96v-262h364v-85h-461v290z" />
    <glyph glyph-name="FL355" unicode="&#xe0d1;" horiz-adv-x="222" 
d="M155 0h-88v299l-87 -51v65l87 55v349h88v-295l87 54v-66l-87 -54v-356z" />
    <glyph glyph-name="FL290" unicode="&#xe034;" horiz-adv-x="667" 
d="M140 231q3 -61 28 -99q49 -71 171 -71q55 0 99 16q87 30 87 108q0 59 -36 84q-37 24 -116 42l-98 22q-95 21 -134 47q-69 45 -69 135q0 96 67 158t190 62q112 0 191 -54.5t79 -173.5h-91q-8 57 -31 88q-45 56 -151 56q-86 0 -123.5 -36t-37.5 -84q0 -52 43 -77
q29 -16 131 -39l100 -23q73 -17 113 -45q68 -51 68 -146q0 -119 -86.5 -170.5t-201.5 -51.5q-134 0 -209 68q-76 68 -75 184h92zM381 793h-92l-99 141h79l66 -93l66 93h80z" />
    <glyph glyph-name="FL291" unicode="&#xe035;" horiz-adv-x="500" 
d="M117 164q4 -44 22 -67q33 -43 115 -43q49 0 86 21.5t37 65.5q0 34 -30 51q-19 11 -75 25l-70 18q-67 16 -98 37q-57 36 -57 99q0 74 53.5 120t143.5 46q118 0 171 -70q32 -44 31 -94h-83q-2 29 -21 54q-30 34 -105 34q-49 0 -75 -19t-26 -50q0 -34 34 -55q19 -12 58 -21
l58 -14q94 -23 127 -45q51 -33 51 -106q0 -69 -53 -120t-161 -51q-117 0 -165.5 53t-52.5 131h85zM292 592h-92l-99 141h79l66 -93l66 93h80z" />
    <glyph glyph-name="FL356" unicode="&#xe0d2;" horiz-adv-x="611" 
d="M23 81l440 551h-408v85h533v-83l-442 -549h442v-85h-565v81zM367 774h-92l-99 141h79l66 -93l66 93h80z" />
    <glyph glyph-name="FL357" unicode="&#xe0d3;" horiz-adv-x="500" 
d="M25 69l310 375h-287v79h406v-72l-308 -372h317v-79h-438v69zM297 592h-92l-99 141h79l66 -93l66 93h80z" />
    <glyph glyph-name="FL481" unicode="&#xe0d4;" horiz-adv-x="260" 
d="M70 445v283h84v-283h-84zM154 0h-84v282h84v-282z" />
    <glyph glyph-name="FL520" unicode="&#xe0d5;" horiz-adv-x="722" 
d="M16 422h65v295h274q178 0 259 -122q59 -90 59 -224q0 -120 -45 -213q-76 -158 -258 -158h-289v335h-65v87zM178 422h205v-87h-205v-252h174q49 0 81 10q56 19 92 74q29 43 42 111q7 40 7 75q0 133 -53 207t-170 74h-173v-212z" />
    <glyph glyph-name="FL552" unicode="&#xe0d6;" 
d="M424 269q0 86 -37 139.5t-116 53.5q-63 0 -105 -52.5t-42 -145.5q0 -75 19 -120q36 -85 136 -85q60 0 102.5 54t42.5 156zM314 519q22 -6 41 -18q-28 43 -54.5 71t-80.5 78l-79 -54l-38 32l80 57l-73 60l64 47q21 -16 37 -28.5t41 -33.5l73 51l37 -32l-74 -53
q112 -106 166 -195q64 -109 64 -230t-65 -205t-187 -84q-116 0 -176 77t-60 197q0 129 65 199t161 70q36 0 58 -6z" />
    <glyph glyph-name="FL533" unicode="&#xe0d7;" horiz-adv-x="667" 
d="M21 717h113l206 -344l206 344h114l-271 -428v-289h-97v289zM472 915l-131 -141h-67l89 141h109z" />
    <glyph glyph-name="FL565" unicode="&#xe0d8;" horiz-adv-x="500" 
d="M391 523h97q-18 -50 -82 -230q-48 -134 -80 -219q-76 -200 -107.5 -244t-107.5 -44q-19 0 -29 1.5t-24 5.5v80q23 -6 33 -7.5t18 -1.5q24 0 35.5 8t19.5 20q3 4 18 40t22 53l-194 538h100l140 -426zM376 733l-131 -141h-67l89 141h109z" />
    <glyph glyph-name="FL534" unicode="&#xe0d9;" horiz-adv-x="667" 
d="M63 716h94v-114h223q111 0 165 -57t54 -150q0 -82 -58 -143.5t-165 -61.5h-219v-190h-94v716zM441 292q58 28 58 108q0 34 -17 63q-30 55 -103 55h-222v-243h191q62 1 93 17z" />
    <glyph glyph-name="FL566" unicode="&#xe0da;" 
d="M429 255q0 65 -17 110q-34 85 -124 85q-56 0 -99 -45t-43 -141q0 -84 18 -128q32 -82 124 -82q65 0 103 53t38 148zM198 499q44 30 106 30q102 0 159 -73.5t57 -191.5q0 -147 -67.5 -216.5t-159.5 -69.5q-64 0 -105 30q-22 16 -40 45v-266h-85v923h83v-266q27 37 52 55z
" />
    <glyph glyph-name="minus" unicode="&#x2212;" horiz-adv-x="584" 
d="M554 296v-82h-509v82h509z" />
    <glyph glyph-name="FL527" unicode="&#xe0db;" horiz-adv-x="584" 
d="M57 441l57 58l185 -186l186 186l59 -58l-186 -186l186 -185l-59 -59l-186 185l-185 -185l-57 59l185 185z" />
    <glyph glyph-name="FL497" unicode="&#xe0dc;" horiz-adv-x="333" 
d="M229 279h-79v284h-108v53q62 5 82 15q30 16 41 65h64v-417z" />
    <glyph glyph-name="FL491" unicode="&#xe0dd;" horiz-adv-x="333" 
d="M125 462q72 36 94 53.5t22 47.5q0 32 -18 51.5t-58 19.5t-55.5 -25t-15.5 -61h-77q0 74 42 112.5t108 38.5q68 0 109.5 -32.5t41.5 -95.5q0 -58 -30 -88t-95 -61q-84 -38 -98 -75h223v-68h-313q0 71 34.5 114.5t85.5 68.5z" />
    <glyph glyph-name="FL492" unicode="&#xe0de;" horiz-adv-x="333" 
d="M75 406q4 -40 14 -55q18 -27 68 -27q47 0 67.5 20.5t20.5 50.5q0 46 -50 62q-27 8 -69 7v59q47 -1 67 6q36 13 36 52q0 23 -16.5 40.5t-51.5 17.5q-34 0 -55 -18.5t-22 -61.5h-70q0 66 40 103t107 37q64 0 103 -33t39 -81q0 -33 -15.5 -55t-43.5 -30q41 -10 58 -36.5
t17 -69.5q0 -62 -48 -95.5t-114 -33.5q-63 0 -107.5 31.5t-46.5 109.5h72z" />
    <glyph glyph-name="FL501" unicode="&#xe0df;" horiz-adv-x="834" 
d="M133 -18l414 717h66l-414 -717h-66zM230 279h-79v284h-107v53q60 5 81 15q31 16 42 65h63v-417zM583 183q73 36 94.5 54t21.5 47q0 34 -18.5 52.5t-56.5 18.5q-44 0 -61 -32q-9 -18 -11 -53h-76q0 61 36 105.5t117 44.5q67 0 107 -34t40 -91q0 -50 -24 -82t-89 -65
q-95 -43 -110 -80h223v-68h-312q5 65 30 107.5t89 75.5z" />
    <glyph glyph-name="FL500" unicode="&#xe0e0;" horiz-adv-x="834" 
d="M266 279h-78v284h-108v53q61 5 81 15q30 16 41 65h64v-417zM672 420h66v-265h56v-60h-56v-95h-75v95h-199v66zM662 155v168l-132 -168h132zM616 699h66l-429 -717h-65z" />
    <glyph glyph-name="FL502" unicode="&#xe0e1;" horiz-adv-x="834" 
d="M682 420h66v-265h55v-60h-55v-95h-76v95h-199v66zM671 155v168l-132 -168h132zM709 699l-437 -717h-66l437 717h66zM108 406q0 -35 17 -57q18 -25 65 -25t67.5 20t20.5 49q0 48 -49 64q-27 8 -69 7v59q47 -1 67 6q36 13 36 53q0 21 -16 39t-53 18q-33 0 -54 -18t-22 -62
h-71q0 70 42 105t105 35q64 0 103 -33t39 -81q0 -29 -14.5 -52.5t-44.5 -32.5q49 -16 66 -51q10 -20 10 -52q0 -64 -48 -98t-114 -34q-94 0 -131 58q-23 37 -23 83h71z" />
    <glyph glyph-name="franc" unicode="&#x20a3;" 
d="M172 0h-93v111h-79v85h79v492h458v-89h-365v-201h319v-85h-319v-117h163v-85h-163v-111z" />
    <glyph glyph-name="Gbreve" unicode="&#x11e;" horiz-adv-x="778" 
d="M561 697q107 -56 131 -197h-96q-18 79 -73 114.5t-139 35.5q-100 0 -168 -74.5t-68 -222.5q0 -128 56 -208.5t183 -80.5q97 0 161 56.5t65 182.5h-224v81h315v-384h-63l-23 92q-50 -54 -88 -75q-64 -36 -162 -36q-128 0 -220 82q-100 104 -100 285q0 180 98 286
q93 102 240 102q101 0 175 -39zM266 933q8 -31 23 -47q27 -29 85 -29q53 0 80 29q15 16 22 47h49q-10 -71 -51 -103t-110 -32q-86 0 -123 58q-20 31 -24 77h49z" />
    <glyph glyph-name="gbreve" unicode="&#x11f;" 
d="M356 502q25 -17 51 -50v66h81v-476q0 -99 -29 -156q-55 -107 -207 -107q-84 0 -141.5 38t-64.5 119h89q7 -36 26 -55q29 -29 93 -29q101 0 133 71q18 42 17 150q-27 -40 -64 -59.5t-98 -19.5q-85 0 -148.5 60t-63.5 199q0 132 64 205.5t155 73.5q62 0 107 -30zM265 455
q-93 0 -127 -87q-18 -47 -18 -122q0 -88 36 -134.5t96 -46.5q95 0 134 86q21 48 21 113q0 97 -40 144t-102 47zM155 732q8 -31 23 -47q27 -29 85 -29q53 0 80 29q15 16 22 47h49q-10 -71 -51 -103t-110 -32q-86 0 -123 58q-20 31 -24 77h49z" />
    <glyph glyph-name="Idotaccent" unicode="&#x130;" horiz-adv-x="278" 
d="M98 717h98v-717h-98v717zM102 888h91v-102h-91v102z" />
    <glyph glyph-name="Scedilla" unicode="&#xf6c1;" horiz-adv-x="667" 
d="M140 231q3 -61 28 -99q49 -71 171 -71q55 0 99 16q87 30 87 108q0 59 -36.5 83.5t-115.5 42.5l-98 22q-95 21 -134 47q-69 45 -69 135q0 96 67 158t190 62q112 0 191 -54.5t79 -173.5h-91q-8 57 -31 88q-45 56 -151 56q-86 0 -123.5 -36t-37.5 -84q0 -52 43 -77
q29 -16 131 -39l100 -23q73 -17 113 -45q68 -51 68 -146q0 -119 -86.5 -170.5t-187.5 -51.5l-30 -41q14 4 37 4q34 0 56 -19.5t22 -56.5t-29 -64t-90 -27q-26 0 -54 8q-15 4 -42 13l17 40q19 -7 29 -10q20 -5 36 -5q18 0 32 5q25 10 25 37q0 16 -13 27.5t-34 11.5
q-11 0 -19.5 -2t-20.5 -6l-17 20l48 65q-101 0 -176.5 68t-74.5 184h92z" />
    <glyph glyph-name="scedilla" unicode="&#xf6c2;" horiz-adv-x="500" 
d="M117 164q4 -44 22 -67q33 -43 115 -43q49 0 86 21.5t37 65.5q0 34 -30 51q-19 11 -75 25l-70 18q-67 16 -98 37q-57 36 -57 99q0 74 53.5 120t143.5 46q118 0 171 -70q32 -44 31 -94h-83q-2 29 -21 54q-30 34 -105 34q-49 0 -75 -19t-26 -50q0 -34 34 -55q19 -12 58 -21
l58 -14q94 -23 127 -45q51 -33 51 -106q0 -69 -53 -120t-147 -51l-32 -42q15 4 37 4q34 0 56.5 -19.5t22.5 -56.5t-29.5 -64t-89.5 -27q-26 0 -54 8q-16 4 -42 13l17 40q18 -7 29 -10q20 -5 36 -5q18 0 31 5q25 10 25 37q0 16 -12.5 27.5t-34.5 11.5q-11 0 -19.5 -2
t-19.5 -6l-18 20l49 66q-83 0 -131.5 53t-52.5 131h85z" />
    <glyph glyph-name="Cacute" unicode="&#x106;" horiz-adv-x="722" 
d="M673 502h-94q-16 69 -64.5 109.5t-135.5 40.5q-106 0 -171 -74.5t-65 -227.5q0 -126 59 -204.5t175 -78.5q108 0 164 82q30 44 44 115h95q-13 -114 -84 -190q-85 -92 -230 -92q-125 0 -210 75q-112 100 -112 309q0 159 84 260q91 111 250 111q137 0 212 -72t83 -163z
M489 934l-131 -141h-67l89 141h109z" />
    <glyph glyph-name="cacute" unicode="&#x107;" horiz-adv-x="500" 
d="M477 347h-86q-8 49 -35.5 80.5t-89.5 31.5q-84 0 -120 -82q-23 -53 -23 -131q0 -79 33 -132.5t104 -53.5q55 0 87 33.5t44 91.5h86q-15 -104 -73.5 -152t-150.5 -48q-102 0 -163 75t-61 187q0 138 67 214.5t170 76.5q88 0 143.5 -43t67.5 -148zM383 733l-131 -141h-67
l89 141h109z" />
    <glyph glyph-name="Ccaron" unicode="&#x10c;" horiz-adv-x="722" 
d="M673 502h-94q-16 69 -64.5 109.5t-135.5 40.5q-106 0 -171 -74.5t-65 -227.5q0 -126 59 -204.5t175 -78.5q108 0 164 82q30 44 44 115h95q-13 -114 -84 -190q-85 -92 -230 -92q-125 0 -210 75q-112 100 -112 309q0 159 84 260q91 111 250 111q137 0 212 -72t83 -163z
M404 793h-92l-99 141h79l66 -93l66 93h80z" />
    <glyph glyph-name="ccaron" unicode="&#x10d;" horiz-adv-x="500" 
d="M477 347h-86q-8 49 -35.5 80.5t-89.5 31.5q-84 0 -120 -82q-23 -53 -23 -131q0 -79 33 -132.5t104 -53.5q55 0 87 33.5t44 91.5h86q-15 -104 -73.5 -152t-150.5 -48q-102 0 -163 75t-61 187q0 138 67 214.5t170 76.5q88 0 143.5 -43t67.5 -148zM298 592h-92l-99 141h79
l66 -93l66 93h80z" />
    <glyph glyph-name="dmacron" unicode="&#x111;" 
d="M270 58q61 0 100.5 52.5t39.5 150.5q0 99 -40.5 147t-100.5 48q-66 0 -107.5 -51t-41.5 -150q0 -84 35.5 -140.5t114.5 -56.5zM353 507q23 -15 53 -51v135h-163v58h163v71h85v-71h65v-58h-65v-591h-79v73q-31 -49 -73 -70t-96 -21q-88 0 -152 73t-64 195
q0 115 58.5 198.5t166.5 83.5q61 0 101 -25z" />
    <glyph glyph-name="uniE000" unicode="&#xe000;" horiz-adv-x="722" 
d="M79 0v717h569v-717h-569zM558 90v537h-390v-537h390z" />
    <glyph glyph-name="FL460" unicode="&#xe0e2;" horiz-adv-x="669" 
d="M140 232q3 -30 9.5 -55t19.5 -44q48 -72 171 -72q28 0 52.5 4t47.5 12q87 30 87 109q0 59 -37 83q-18 13 -47 23.5t-69 19.5l-98 22q-47 11 -80.5 22.5t-54.5 25.5q-35 22 -51.5 56t-16.5 78q0 97 67 160q67 62 190 62q112 0 192 -55q79 -55 79 -174h-91q-8 58 -32 88
q-45 57 -151 57q-86 0 -124 -37t-38 -84q0 -53 44 -77q14 -8 47 -18t84 -22l101 -23q37 -8 65 -19.5t48 -25.5q34 -26 51 -62t17 -85q0 -118 -87 -171q-87 -51 -202 -51q-67 0 -119.5 17t-90.5 52q-38 34 -56.5 79.5t-17.5 104.5h91zM384 766h-93l-100 141h80l66 -94l66 94
h81z" />
    <glyph glyph-name="FL472" unicode="&#xe0e3;" horiz-adv-x="502" 
d="M117 165q5 -45 22 -68q33 -43 116 -43q49 0 86 21q37 22 37 67q0 33 -30 51q-9 5 -27.5 11.5t-47.5 13.5l-70 18q-34 8 -58.5 17t-40.5 20q-57 36 -57 99q0 74 53 120q54 46 145 46q118 0 171 -69q32 -44 32 -95h-83q-2 15 -7 29t-15 25q-14 18 -40.5 26.5t-64.5 8.5
q-50 0 -75.5 -19t-25.5 -51q0 -35 34 -54q10 -7 24 -12t33 -10l59 -14q94 -24 127 -45q51 -33 51 -106q0 -35 -13 -65t-40 -56q-53 -51 -162 -51q-59 0 -100 13.5t-66 39.5q-24 27 -36.5 59.5t-15.5 72.5h85zM295 594h-93l-99 142h80l66 -94l66 94h80z" />
    <glyph glyph-name="FL475" unicode="&#xe0e4;" horiz-adv-x="669" 
d="M21 720h113l207 -346l207 346h114l-272 -430v-290h-97v290zM388 904h92v-102h-92v102zM226 904h92v-102h-92v102z" />
    <glyph glyph-name="FL504" unicode="&#xe0e5;" horiz-adv-x="669" 
d="M446 295l-109 318l-117 -318h226zM286 720h110l261 -720h-107l-73 216h-284l-78 -216h-100zM418 790h-67l-132 142h110z" />
    <glyph glyph-name="FL505" unicode="&#xe0e6;" horiz-adv-x="669" 
d="M446 295l-109 318l-117 -318h226zM286 720h110l261 -720h-107l-73 216h-284l-78 -216h-100zM489 932l-131 -142h-67l89 142h109z" />
    <glyph glyph-name="FL506" unicode="&#xe0e7;" horiz-adv-x="669" 
d="M190 857h314v-72h-314v72zM446 295l-109 318l-117 -318h226zM286 720h110l261 -720h-107l-73 216h-284l-78 -216h-100z" />
    <glyph glyph-name="FL507" unicode="&#xe0e8;" horiz-adv-x="669" 
d="M446 295l-109 318l-117 -318h226zM286 720h110l261 -720h-107l-73 216h-284l-78 -216h-100zM370 883q14 -6 25.5 -9t22.5 -3q28 0 40 17q3 5 5 11.5t3 16.5h52q-10 -62 -40 -86q-28 -24 -63 -24q-11 0 -27.5 4t-29.5 9l-26 10q-23 8 -37.5 12t-28.5 4q-36 0 -43 -45h-48
q4 20 8.5 35.5t12.5 27.5q27 45 83 45q8 0 17 -1t20 -4t24.5 -8t29.5 -12z" />
    <glyph glyph-name="FL508" unicode="&#xe0e9;" horiz-adv-x="669" 
d="M446 295l-109 318l-117 -318h226zM286 720h110l261 -720h-107l-73 216h-284l-78 -216h-100zM378 904h92v-102h-92v102zM217 904h91v-102h-91v102z" />
    <glyph glyph-name="FL509" unicode="&#xe0ea;" horiz-adv-x="669" 
d="M446 295l-109 318l-117 -318h226zM286 720h110l261 -720h-107l-73 216h-284l-78 -216h-100zM349 799q13 0 23.5 4.5t19.5 13.5q19 18 19 44q0 25 -19 43q-17 19 -43 19t-43 -19q-10 -9 -14 -19.5t-4 -23.5t4 -24t14 -20q18 -18 43 -18zM349 963q42 0 72 -30t30 -72
q0 -43 -30 -73t-72 -30t-72 30t-30 73q0 42 30 72t72 30z" />
    <glyph glyph-name="FL512" unicode="&#xe0eb;" horiz-adv-x="669" 
d="M86 720h524v-88h-429v-219h397v-83h-397v-244h437v-86h-532v720zM379 790h-67l-132 142h110z" />
    <glyph glyph-name="FL513" unicode="&#xe0ec;" horiz-adv-x="669" 
d="M86 720h524v-88h-429v-219h397v-83h-397v-244h437v-86h-532v720zM489 932l-131 -142h-67l89 142h109z" />
    <glyph glyph-name="FL514" unicode="&#xe0ed;" horiz-adv-x="669" 
d="M195 857h314v-72h-314v72zM86 720h524v-88h-429v-219h397v-83h-397v-244h437v-86h-532v720z" />
    <glyph glyph-name="FL515" unicode="&#xe0ee;" horiz-adv-x="669" 
d="M86 720h524v-88h-429v-219h397v-83h-397v-244h437v-86h-532v720zM378 904h92v-102h-92v102zM217 904h91v-102h-91v102z" />
    <glyph glyph-name="FL516" unicode="&#xe0ef;" horiz-adv-x="279" 
d="M98 720h99v-720h-99v720zM212 790h-67l-131 142h109z" />
    <glyph glyph-name="FL517" unicode="&#xe0f0;" horiz-adv-x="279" 
d="M98 720h99v-720h-99v720zM259 932l-131 -142h-68l90 142h109z" />
    <glyph glyph-name="FL518" unicode="&#xe0f1;" horiz-adv-x="279" 
d="M98 720h99v-720h-99v720zM0 857h313v-72h-313v72z" />
    <glyph glyph-name="FL519" unicode="&#xe0f2;" horiz-adv-x="279" 
d="M98 720h99v-720h-99v720zM177 904h92v-102h-92v102zM16 904h91v-102h-91v102z" />
    <glyph glyph-name="FL521" unicode="&#xe0f3;" horiz-adv-x="725" 
d="M76 720h116l363 -583v583h93v-720h-110l-368 583v-583h-94v720zM390 883q14 -6 25 -9t23 -3q27 0 39 17q7 9 9 28h51q-5 -32 -15 -53t-24 -33q-28 -24 -64 -24q-5 0 -12 1.5t-15 3t-16 4t-14 4.5l-26 10q-23 8 -37 12t-28 4q-36 0 -43 -45h-48q7 40 21 63q27 45 82 45
q8 0 17 -1t20 -4t24.5 -8t30.5 -12z" />
    <glyph glyph-name="FL522" unicode="&#xe0f4;" horiz-adv-x="780" 
d="M669 617q36 -48 54 -108.5t18 -136.5q0 -80 -20.5 -147.5t-61.5 -120.5q-96 -125 -274 -125q-84 0 -149 27t-112 83q-44 52 -64.5 118.5t-20.5 148.5q0 147 73 250q93 133 275 133q96 0 166 -30t116 -92zM641 371q0 128 -67 204q-66 78 -181 78q-57 0 -102 -19.5
t-80 -57.5q-71 -77 -71 -226q0 -119 60 -202q61 -82 197 -82q128 0 186 92t58 213zM467 790h-67l-132 142h110z" />
    <glyph glyph-name="FL523" unicode="&#xe0f5;" horiz-adv-x="780" 
d="M669 617q36 -48 54 -108.5t18 -136.5q0 -80 -20.5 -147.5t-61.5 -120.5q-96 -125 -274 -125q-84 0 -149 27t-112 83q-44 52 -64.5 118.5t-20.5 148.5q0 147 73 250q93 133 275 133q96 0 166 -30t116 -92zM641 371q0 128 -67 204q-66 78 -181 78q-57 0 -102 -19.5
t-80 -57.5q-71 -77 -71 -226q0 -119 60 -202q61 -82 197 -82q128 0 186 92t58 213zM538 932l-131 -142h-67l89 142h109z" />
    <glyph glyph-name="FL524" unicode="&#xe0f6;" horiz-adv-x="780" 
d="M244 857h314v-72h-314v72zM669 617q36 -48 54 -108.5t18 -136.5q0 -80 -20.5 -147.5t-61.5 -120.5q-96 -125 -274 -125q-84 0 -149 27t-112 83q-44 52 -64.5 118.5t-20.5 148.5q0 147 73 250q93 133 275 133q96 0 166 -30t116 -92zM641 371q0 128 -67 204q-66 78 -181 78
q-57 0 -102 -19.5t-80 -57.5q-71 -77 -71 -226q0 -119 60 -202q61 -82 197 -82q128 0 186 92t58 213z" />
    <glyph glyph-name="FL525" unicode="&#xe0f7;" horiz-adv-x="780" 
d="M669 617q36 -48 54 -108.5t18 -136.5q0 -80 -20.5 -147.5t-61.5 -120.5q-96 -125 -274 -125q-84 0 -149 27t-112 83q-44 52 -64.5 118.5t-20.5 148.5q0 147 73 250q93 133 275 133q96 0 166 -30t116 -92zM641 371q0 128 -67 204q-66 78 -181 78q-57 0 -102 -19.5
t-80 -57.5q-71 -77 -71 -226q0 -119 60 -202q61 -82 197 -82q128 0 186 92t58 213zM405 883q13 -6 24.5 -9t23.5 -3q26 0 39 17q6 9 9 28h51q-10 -62 -40 -86q-28 -24 -63 -24q-5 0 -12 1.5t-15 3t-16 4t-14 4.5l-26 10q-23 8 -38 12t-28 4q-33 0 -43 -45h-47q3 20 8 35.5
t12 27.5q14 23 34.5 34t48.5 11q8 0 17 -1t20 -4t24.5 -8t30.5 -12z" />
    <glyph glyph-name="FL526" unicode="&#xe0f8;" horiz-adv-x="780" 
d="M669 617q36 -48 54 -108.5t18 -136.5q0 -80 -20.5 -147.5t-61.5 -120.5q-96 -125 -274 -125q-84 0 -149 27t-112 83q-44 52 -64.5 118.5t-20.5 148.5q0 147 73 250q93 133 275 133q96 0 166 -30t116 -92zM641 371q0 128 -67 204q-66 78 -181 78q-57 0 -102 -19.5
t-80 -57.5q-71 -77 -71 -226q0 -119 60 -202q61 -82 197 -82q128 0 186 92t58 213zM437 904h92v-102h-92v102zM275 904h92v-102h-92v102z" />
    <glyph glyph-name="FL529" unicode="&#xe0f9;" horiz-adv-x="725" 
d="M182 720v-445q0 -79 30 -130q43 -79 147 -79q62 0 103.5 21.5t64.5 63.5q24 46 24 124v445h99v-404q0 -133 -36 -205q-65 -130 -248 -130q-180 0 -247 130q-18 36 -27 87t-9 118v404h99zM423 790h-67l-132 142h110z" />
    <glyph glyph-name="FL530" unicode="&#xe0fa;" horiz-adv-x="725" 
d="M182 720v-445q0 -79 30 -130q43 -79 147 -79q62 0 103.5 21.5t64.5 63.5q24 46 24 124v445h99v-404q0 -133 -36 -205q-65 -130 -248 -130q-180 0 -247 130q-18 36 -27 87t-9 118v404h99zM489 932l-131 -142h-67l89 142h109z" />
    <glyph glyph-name="FL531" unicode="&#xe0fb;" horiz-adv-x="725" 
d="M215 857h313v-72h-313v72zM182 720v-445q0 -79 30 -130q43 -79 147 -79q62 0 103.5 21.5t64.5 63.5q24 46 24 124v445h99v-404q0 -133 -36 -205q-65 -130 -248 -130q-180 0 -247 130q-18 36 -27 87t-9 118v404h99z" />
    <glyph glyph-name="FL532" unicode="&#xe0fc;" horiz-adv-x="725" 
d="M398 904h91v-102h-91v102zM236 904h92v-102h-92v102zM182 720v-445q0 -79 30 -130q43 -79 147 -79q62 0 103.5 21.5t64.5 63.5q24 46 24 124v445h99v-404q0 -133 -36 -205q-65 -130 -248 -130q-180 0 -247 130q-18 36 -27 87t-9 118v404h99z" />
    <glyph glyph-name="FL536" unicode="&#xe0fd;" horiz-adv-x="558" 
d="M226 57q24 0 46.5 5.5t44.5 16.5q73 36 73 117v71q-16 -11 -41.5 -17.5t-50.5 -9.5l-53 -7q-47 -6 -72 -20q-41 -23 -41 -73q0 -20 7 -35t21 -26t31 -16.5t35 -5.5zM346 318q30 4 41 25q5 13 5 34q0 46 -31.5 66t-92.5 20q-69 0 -97 -37q-8 -10 -13.5 -25.5t-8.5 -35.5
h-82q3 97 63 134q60 38 140 38q93 0 151 -35q57 -34 57 -110v-302q0 -14 6 -22t24 -8q11 0 29 3v-64q-11 -3 -19 -4.5t-13 -2.5t-12.5 -2t-16.5 -1q-46 0 -66 32q-6 8 -10 20.5t-6 28.5q-14 -18 -32.5 -33.5t-44.5 -28.5q-50 -25 -111 -25q-72 0 -120 44q-46 44 -46 111
q0 73 46 113q45 40 119 49zM335 594h-67l-132 142h109z" />
    <glyph glyph-name="FL537" unicode="&#xe0fe;" horiz-adv-x="558" 
d="M226 57q24 0 46.5 5.5t44.5 16.5q73 36 73 117v71q-16 -11 -41.5 -17.5t-50.5 -9.5l-53 -7q-47 -6 -72 -20q-41 -23 -41 -73q0 -20 7 -35t21 -26t31 -16.5t35 -5.5zM346 318q30 4 41 25q5 13 5 34q0 46 -31.5 66t-92.5 20q-69 0 -97 -37q-8 -10 -13.5 -25.5t-8.5 -35.5
h-82q3 97 63 134q60 38 140 38q93 0 151 -35q57 -34 57 -110v-302q0 -14 6 -22t24 -8q11 0 29 3v-64q-11 -3 -19 -4.5t-13 -2.5t-12.5 -2t-16.5 -1q-46 0 -66 32q-6 8 -10 20.5t-6 28.5q-14 -18 -32.5 -33.5t-44.5 -28.5q-50 -25 -111 -25q-72 0 -120 44q-46 44 -46 111
q0 73 46 113q45 40 119 49zM401 736l-131 -142h-68l90 142h109z" />
    <glyph glyph-name="FL538" unicode="&#xe0ff;" horiz-adv-x="558" 
d="M122 686h313v-68h-313v68zM226 57q24 0 46.5 5.5t44.5 16.5q73 36 73 117v71q-16 -11 -41.5 -17.5t-50.5 -9.5l-53 -7q-47 -6 -72 -20q-41 -23 -41 -73q0 -20 7 -35t21 -26t31 -16.5t35 -5.5zM346 318q30 4 41 25q5 13 5 34q0 46 -31.5 66t-92.5 20q-69 0 -97 -37
q-8 -10 -13.5 -25.5t-8.5 -35.5h-82q3 97 63 134q60 38 140 38q93 0 151 -35q57 -34 57 -110v-302q0 -14 6 -22t24 -8q11 0 29 3v-64q-11 -3 -19 -4.5t-13 -2.5t-12.5 -2t-16.5 -1q-46 0 -66 32q-6 8 -10 20.5t-6 28.5q-14 -18 -32.5 -33.5t-44.5 -28.5q-50 -25 -111 -25
q-72 0 -120 44q-46 44 -46 111q0 73 46 113q45 40 119 49z" />
    <glyph glyph-name="FL539" unicode="&#xe100;" horiz-adv-x="558" 
d="M226 57q24 0 46.5 5.5t44.5 16.5q73 36 73 117v71q-16 -11 -41.5 -17.5t-50.5 -9.5l-53 -7q-47 -6 -72 -20q-41 -23 -41 -73q0 -20 7 -35t21 -26t31 -16.5t35 -5.5zM346 318q30 4 41 25q5 13 5 34q0 46 -31.5 66t-92.5 20q-69 0 -97 -37q-8 -10 -13.5 -25.5t-8.5 -35.5
h-82q3 97 63 134q60 38 140 38q93 0 151 -35q57 -34 57 -110v-302q0 -14 6 -22t24 -8q11 0 29 3v-64q-11 -3 -19 -4.5t-13 -2.5t-12.5 -2t-16.5 -1q-46 0 -66 32q-6 8 -10 20.5t-6 28.5q-14 -18 -32.5 -33.5t-44.5 -28.5q-50 -25 -111 -25q-72 0 -120 44q-46 44 -46 111
q0 73 46 113q45 40 119 49zM297 687q14 -5 25 -8.5t23 -3.5q27 0 39 17q4 5 6 11.5t3 16.5h51q-5 -32 -15 -53t-24 -33q-31 -24 -64 -24q-5 0 -12.5 1t-15 3t-15 4.5t-14.5 4.5l-26 10q-23 8 -37 12t-28 4q-35 0 -44 -45h-47q6 38 20 63q29 45 83 45q8 0 17 -1t20 -4
t24.5 -8t30.5 -12z" />
    <glyph glyph-name="FL540" unicode="&#xe101;" horiz-adv-x="558" 
d="M226 57q24 0 46.5 5.5t44.5 16.5q73 36 73 117v71q-16 -11 -41.5 -17.5t-50.5 -9.5l-53 -7q-47 -6 -72 -20q-41 -23 -41 -73q0 -20 7 -35t21 -26t31 -16.5t35 -5.5zM346 318q30 4 41 25q5 13 5 34q0 46 -31.5 66t-92.5 20q-69 0 -97 -37q-8 -10 -13.5 -25.5t-8.5 -35.5
h-82q3 97 63 134q60 38 140 38q93 0 151 -35q57 -34 57 -110v-302q0 -14 6 -22t24 -8q11 0 29 3v-64q-11 -3 -19 -4.5t-13 -2.5t-12.5 -2t-16.5 -1q-46 0 -66 32q-6 8 -10 20.5t-6 28.5q-14 -18 -32.5 -33.5t-44.5 -28.5q-50 -25 -111 -25q-72 0 -120 44q-46 44 -46 111
q0 73 46 113q45 40 119 49zM310 708h91v-102h-91v102zM148 708h92v-102h-92v102z" />
    <glyph glyph-name="FL541" unicode="&#xe102;" horiz-adv-x="558" 
d="M226 57q24 0 46.5 5.5t44.5 16.5q73 36 73 117v71q-16 -11 -41.5 -17.5t-50.5 -9.5l-53 -7q-47 -6 -72 -20q-41 -23 -41 -73q0 -20 7 -35t21 -26t31 -16.5t35 -5.5zM346 318q30 4 41 25q5 13 5 34q0 46 -31.5 66t-92.5 20q-69 0 -97 -37q-8 -10 -13.5 -25.5t-8.5 -35.5
h-82q3 97 63 134q60 38 140 38q93 0 151 -35q57 -34 57 -110v-302q0 -14 6 -22t24 -8q11 0 29 3v-64q-11 -3 -19 -4.5t-13 -2.5t-12.5 -2t-16.5 -1q-46 0 -66 32q-6 8 -10 20.5t-6 28.5q-14 -18 -32.5 -33.5t-44.5 -28.5q-50 -25 -111 -25q-72 0 -120 44q-46 44 -46 111
q0 73 46 113q45 40 119 49zM278 633q13 0 24 4t20 14q18 18 18 43q0 26 -18 44t-44 18q-12 0 -23 -4.5t-20 -13.5q-18 -18 -18 -44q0 -13 4.5 -23.5t13.5 -19.5q9 -10 20 -14t23 -4zM278 797q41 0 72 -31t31 -72t-31 -72q-30 -30 -72 -30t-72 30t-30 72t30 72q31 31 72 31z
" />
    <glyph glyph-name="FL544" unicode="&#xe103;" horiz-adv-x="558" 
d="M471 442q13 -20 21.5 -43t14.5 -49q3 -18 5 -47t2 -69h-384q1 -79 38 -128q35 -48 109 -48q69 0 110 45q24 28 33 62h87q-3 -29 -23 -65q-19 -35 -43 -58q-40 -39 -100 -51q-32 -9 -72 -9q-49 0 -90 17.5t-76 53.5q-68 71 -68 199q0 126 69 206q34 39 78.5 59t100.5 20
q28 0 55 -7.5t53 -19.5q53 -26 80 -68zM424 304q-3 29 -9 52t-16 40q-37 64 -121 64q-61 0 -102 -45q-41 -44 -44 -111h292zM335 594h-67l-132 142h109z" />
    <glyph glyph-name="FL545" unicode="&#xe104;" horiz-adv-x="558" 
d="M471 442q13 -20 21.5 -43t14.5 -49q3 -18 5 -47t2 -69h-384q1 -79 38 -128q35 -48 109 -48q69 0 110 45q24 28 33 62h87q-3 -29 -23 -65q-19 -35 -43 -58q-40 -39 -100 -51q-32 -9 -72 -9q-49 0 -90 17.5t-76 53.5q-68 71 -68 199q0 126 69 206q34 39 78.5 59t100.5 20
q28 0 55 -7.5t53 -19.5q53 -26 80 -68zM424 304q-3 29 -9 52t-16 40q-37 64 -121 64q-61 0 -102 -45q-41 -44 -44 -111h292zM435 736l-131 -142h-67l89 142h109z" />
    <glyph glyph-name="FL546" unicode="&#xe105;" horiz-adv-x="558" 
d="M122 686h313v-68h-313v68zM471 442q13 -20 21.5 -43t14.5 -49q3 -18 5 -47t2 -69h-384q1 -79 38 -128q35 -48 109 -48q69 0 110 45q24 28 33 62h87q-3 -29 -23 -65q-19 -35 -43 -58q-40 -39 -100 -51q-32 -9 -72 -9q-49 0 -90 17.5t-76 53.5q-68 71 -68 199q0 126 69 206
q34 39 78.5 59t100.5 20q28 0 55 -7.5t53 -19.5q53 -26 80 -68zM424 304q-3 29 -9 52t-16 40q-37 64 -121 64q-61 0 -102 -45q-41 -44 -44 -111h292z" />
    <glyph glyph-name="FL547" unicode="&#xe106;" horiz-adv-x="558" 
d="M471 442q13 -20 21.5 -43t14.5 -49q3 -18 5 -47t2 -69h-384q1 -79 38 -128q35 -48 109 -48q69 0 110 45q24 28 33 62h87q-3 -29 -23 -65q-19 -35 -43 -58q-40 -39 -100 -51q-32 -9 -72 -9q-49 0 -90 17.5t-76 53.5q-68 71 -68 199q0 126 69 206q34 39 78.5 59t100.5 20
q28 0 55 -7.5t53 -19.5q53 -26 80 -68zM424 304q-3 29 -9 52t-16 40q-37 64 -121 64q-61 0 -102 -45q-41 -44 -44 -111h292zM315 708h91v-102h-91v102zM153 708h91v-102h-91v102z" />
    <glyph glyph-name="FL548" unicode="&#xe107;" horiz-adv-x="279" 
d="M93 522h89v-522h-89v522zM227 594h-67l-132 142h110z" />
    <glyph glyph-name="FL549" unicode="&#xe108;" horiz-adv-x="279" 
d="M93 522h89v-522h-89v522zM273 736l-130 -142h-68l90 142h108z" />
    <glyph glyph-name="FL550" unicode="&#xe109;" horiz-adv-x="279" 
d="M93 522h89v-522h-89v522zM-11 686h314v-68h-314v68z" />
    <glyph glyph-name="FL551" unicode="&#xe10a;" horiz-adv-x="279" 
d="M93 522h89v-522h-89v522zM168 708h91v-102h-91v102zM6 708h92v-102h-92v102z" />
    <glyph glyph-name="FL553" unicode="&#xe10b;" horiz-adv-x="558" 
d="M65 525h83v-75q38 47 79.5 67t92.5 20q112 0 151 -78q10 -22 15.5 -52t5.5 -70v-337h-89v331q0 47 -14 77q-24 49 -86 49q-31 0 -51 -6q-18 -6 -34 -16.5t-30 -26.5q-21 -27 -29 -54q-3 -14 -4.5 -33.5t-1.5 -45.5v-275h-88v525zM292 687q14 -5 25 -8.5t23 -3.5
q27 0 39 17q4 5 6 11.5t3 16.5h51q-4 -32 -14.5 -53t-24.5 -33q-29 -24 -64 -24q-5 0 -12.5 1t-15 3t-15.5 4.5t-14 4.5l-26 10q-23 8 -37 12t-28 4q-36 0 -43 -45h-48q6 40 21 63q28 45 82 45q8 0 17 -1t20 -4t24.5 -8t30.5 -12z" />
    <glyph glyph-name="FL554" unicode="&#xe10c;" horiz-adv-x="558" 
d="M426 271q0 74 -24 119q-37 73 -128 73q-80 0 -118 -62q-36 -61 -36 -149q0 -84 36 -139q37 -56 117 -56q87 0 120 66q33 67 33 148zM518 273q0 -126 -62 -209q-61 -83 -191 -83q-109 0 -172 73q-64 73 -64 197q0 133 67.5 211t179.5 78q52 0 94.5 -17t77.5 -51
t52.5 -83.5t17.5 -115.5zM349 594h-67l-131 142h109z" />
    <glyph glyph-name="FL555" unicode="&#xe10d;" horiz-adv-x="558" 
d="M426 271q0 74 -24 119q-37 73 -128 73q-80 0 -118 -62q-36 -61 -36 -149q0 -84 36 -139q37 -56 117 -56q87 0 120 66q33 67 33 148zM518 273q0 -126 -62 -209q-61 -83 -191 -83q-109 0 -172 73q-64 73 -64 197q0 133 67.5 211t179.5 78q52 0 94.5 -17t77.5 -51
t52.5 -83.5t17.5 -115.5zM391 736l-131 -142h-67l89 142h109z" />
    <glyph glyph-name="FL556" unicode="&#xe10e;" horiz-adv-x="558" 
d="M131 686h314v-68h-314v68zM426 271q0 74 -24 119q-37 73 -128 73q-80 0 -118 -62q-36 -61 -36 -149q0 -84 36 -139q37 -56 117 -56q87 0 120 66q33 67 33 148zM518 273q0 -126 -62 -209q-61 -83 -191 -83q-109 0 -172 73q-64 73 -64 197q0 133 67.5 211t179.5 78
q52 0 94.5 -17t77.5 -51t52.5 -83.5t17.5 -115.5z" />
    <glyph glyph-name="FL557" unicode="&#xe10f;" horiz-adv-x="558" 
d="M426 271q0 74 -24 119q-37 73 -128 73q-80 0 -118 -62q-36 -61 -36 -149q0 -84 36 -139q37 -56 117 -56q87 0 120 66q33 67 33 148zM518 273q0 -126 -62 -209q-61 -83 -191 -83q-109 0 -172 73q-64 73 -64 197q0 133 67.5 211t179.5 78q52 0 94.5 -17t77.5 -51
t52.5 -83.5t17.5 -115.5zM297 687q14 -5 25 -8.5t23 -3.5q27 0 39 17q4 5 6 11.5t3 16.5h51q-5 -32 -15 -53t-24 -33q-31 -24 -64 -24q-5 0 -12.5 1t-15 3t-15 4.5t-14.5 4.5l-26 10q-23 8 -37 12t-28 4q-35 0 -44 -45h-47q6 38 20 63q29 45 83 45q8 0 17 -1t20 -4t24.5 -8
t30.5 -12z" />
    <glyph glyph-name="FL558" unicode="&#xe110;" horiz-adv-x="558" 
d="M426 271q0 74 -24 119q-37 73 -128 73q-80 0 -118 -62q-36 -61 -36 -149q0 -84 36 -139q37 -56 117 -56q87 0 120 66q33 67 33 148zM518 273q0 -126 -62 -209q-61 -83 -191 -83q-109 0 -172 73q-64 73 -64 197q0 133 67.5 211t179.5 78q52 0 94.5 -17t77.5 -51
t52.5 -83.5t17.5 -115.5zM305 708h91v-102h-91v102zM143 708h92v-102h-92v102z" />
    <glyph glyph-name="FL561" unicode="&#xe111;" horiz-adv-x="558" 
d="M153 525v-349q0 -39 13 -65q11 -24 33 -35.5t54 -11.5q92 0 126 82q18 44 18 121v258h88v-525h-83l1 77q-9 -15 -19.5 -27t-23.5 -23q-26 -21 -56 -31t-66 -10q-113 0 -153 75q-11 21 -16.5 47t-5.5 60v357h90zM335 594h-67l-132 142h109z" />
    <glyph glyph-name="FL562" unicode="&#xe112;" horiz-adv-x="558" 
d="M153 525v-349q0 -39 13 -65q11 -24 33 -35.5t54 -11.5q92 0 126 82q18 44 18 121v258h88v-525h-83l1 77q-9 -15 -19.5 -27t-23.5 -23q-26 -21 -56 -31t-66 -10q-113 0 -153 75q-11 21 -16.5 47t-5.5 60v357h90zM420 736l-130 -142h-68l90 142h108z" />
    <glyph glyph-name="FL563" unicode="&#xe113;" horiz-adv-x="558" 
d="M122 686h313v-68h-313v68zM153 525v-349q0 -39 13 -65q11 -24 33 -35.5t54 -11.5q92 0 126 82q18 44 18 121v258h88v-525h-83l1 77q-9 -15 -19.5 -27t-23.5 -23q-26 -21 -56 -31t-66 -10q-113 0 -153 75q-11 21 -16.5 47t-5.5 60v357h90z" />
    <glyph glyph-name="FL564" unicode="&#xe114;" horiz-adv-x="558" 
d="M153 525v-349q0 -39 13 -65q11 -24 33 -35.5t54 -11.5q92 0 126 82q18 44 18 121v258h88v-525h-83l1 77q-9 -15 -19.5 -27t-23.5 -23q-26 -21 -56 -31t-66 -10q-113 0 -153 75q-11 21 -16.5 47t-5.5 60v357h90zM305 708h91v-102h-91v102zM143 708h92v-102h-92v102z" />
    <glyph glyph-name="FL567" unicode="&#xe115;" horiz-adv-x="502" 
d="M392 525h98q-9 -25 -30 -82.5t-53 -148.5q-24 -68 -44 -122.5t-36 -97.5q-77 -200 -108 -244t-108 -44q-9 0 -16.5 0.5t-12.5 1.5q-4 1 -10.5 2t-13.5 2v82q12 -4 19.5 -6t13.5 -3t10 -1.5t8 -0.5q13 0 21.5 2.5t14.5 6t11 9t9 11.5q1 2 5 12t12 28t13.5 31.5t8.5 21.5
l-194 540h100l141 -427zM285 708h92v-102h-92v102zM123 708h92v-102h-92v102z" />
    <glyph glyph-name="FL458" unicode="&#xe116;" horiz-adv-x="334" 
d="M9 686h314v-68h-314v68z" />
    <glyph glyph-name="FL359" unicode="&#xe037;" 
d="M537 221q-16 -113 -77 -176t-152 -63q-114 0 -177 93q-39 60 -53 150h-78l18 86h51v31v25h-69l18 86h60q16 90 59 152q67 98 180 98q88 0 146.5 -58.5t73.5 -162.5h-94q-12 65 -46 100t-84 35q-67 0 -105 -73q-20 -39 -30 -91h205l-17 -86h-196l-1 -25v-31h185l-18 -86
h-157q9 -50 28 -86q36 -72 104 -72q49 0 83.5 40t48.5 114h94z" />
    <glyph glyph-name="breve" unicode="&#x2d8;" horiz-adv-x="636" 
d="M184 788h31q8 -38 38.5 -64.5t66.5 -26.5t66.5 26.5t38.5 64.5h32q-13 -75 -49 -117t-88 -42q-50 0 -86 41.5t-50 117.5z" />
    <glyph glyph-name="dotaccent" unicode="&#x2d9;" horiz-adv-x="636" 
d="M318 629q-26 0 -45 19t-19 45q0 27 19 46t45 19q27 0 46 -19t19 -46q0 -26 -19 -45t-46 -19z" />
    <glyph glyph-name="ring" unicode="&#x2da;" horiz-adv-x="636" 
d="M318 659q22 0 37.5 15.5t15.5 37.5t-15.5 37.5t-37.5 15.5t-37.5 -15.5t-15.5 -37.5t15.5 -37.5t37.5 -15.5zM318 629q-34 0 -58.5 24.5t-24.5 58.5q0 35 24.5 59t58.5 24q35 0 59 -24t24 -59q0 -34 -24 -58.5t-59 -24.5z" />
    <glyph glyph-name="hungarumlaut" unicode="&#x2dd;" horiz-adv-x="636" 
d="M250 629h-32l70 159h59zM382 629h-31l69 159h63z" />
    <glyph glyph-name="ogonek" unicode="&#x2db;" horiz-adv-x="636" 
d="M368 0q-75 -68 -75 -113q0 -26 20.5 -43t51.5 -17q10 0 31 4v-30q-31 -12 -68 -12q-42 0 -70.5 24t-28.5 59q0 66 97 128h42z" />
    <glyph glyph-name="caron" unicode="&#x2c7;" horiz-adv-x="636" 
d="M318 705l106 83h31l-122 -159h-30l-121 159h30z" />
    <glyph glyph-name="dotlessi" unicode="&#x131;" horiz-adv-x="341" 
d="M220 558v-429q0 -61 16 -80t67 -19h8v-30h-273v30h10q50 0 65.5 19t15.5 80v214q0 74 -8.5 91t-57.5 39l-25 12v7z" />
    <glyph glyph-name="fraction" unicode="&#x2215;" horiz-adv-x="99" 
d="M-272 -22l581 802h62l-577 -802h-66z" />
    <glyph glyph-name="fi" unicode="&#xfb01;" horiz-adv-x="689" 
d="M114 508h-91v37h91v50q0 104 49.5 156t149.5 52q93 0 140 -59l-70 -65q-36 94 -102 94q-38 0 -57 -34t-19 -103v-91h273l90 16v-432q0 -61 16.5 -80t67.5 -19h7v-30h-276v30h8q53 0 70 19t17 80v379h-273v-379q0 -61 18.5 -80t80.5 -19h7v-30h-288v30h10q50 0 65.5 19
t15.5 80v379z" />
    <glyph glyph-name="fl" unicode="&#xfb02;" horiz-adv-x="697" 
d="M114 545v52q0 105 51 157.5t153 52.5q29 0 72.5 -7.5t101.5 -23.5l76 27v-674q0 -61 16.5 -80t68.5 -19h6v-30h-272v30h8q51 0 67 19t16 80v444v38q0 70 -51 117.5t-126 47.5q-48 0 -72 -30.5t-24 -92.5v-108h155v-37h-155v-379q0 -61 18.5 -80t80.5 -19h7v-30h-288v30
h10q50 0 65.5 19t15.5 80v379h-91v37h91z" />
    <glyph glyph-name="Lslash" unicode="&#x141;" horiz-adv-x="583" 
d="M534 170h38l-17 -179q-168 9 -327 9h-190v30h9q51 0 66.5 19t15.5 81v227l-91 -34v41l91 35v230q0 60 -16 79t-66 19h-9v31h280v-31h-8q-51 0 -66.5 -19t-15.5 -79v-194l90 32v-42l-90 -31v-264q0 -49 35.5 -67t135.5 -18h24q60 0 77 24q25 35 33 90z" />
    <glyph glyph-name="lslash" unicode="&#x142;" horiz-adv-x="341" 
d="M212 803v-369l91 32v-40l-91 -33v-264q0 -61 16.5 -80t68.5 -19h6v-30h-273v30h9q51 0 66.5 19t15.5 80v229l-91 -36v41l91 36v189q0 70 -9.5 89t-53.5 38l-28 12v8z" />
    <glyph glyph-name="Zcaron" unicode="&#x17d;" horiz-adv-x="599" 
d="M42 0v30l385 697h-101q-133 0 -175 -18q-24 -10 -32 -26t-15 -66l-2 -11h-38v166l425 -14h49v-31l-384 -697h134q161 0 188 29q23 25 38 100l1 8h38l-11 -180q-216 13 -408 13h-92zM312 909l79 30h95l-159 -98h-31l-159 98h87z" />
    <glyph glyph-name="zcaron" unicode="&#x17e;" horiz-adv-x="545" 
d="M49 0v30l318 489h-99q-116 0 -140 -19q-27 -24 -36 -67l-1 -9h-37l16 121h408v-26l-318 -489h130q86 0 120 19.5t43 74.5l2 9h41l-17 -133h-430zM273 705l106 83h31l-122 -159h-30l-121 159h30z" />
    <glyph glyph-name="FL584" unicode="&#xe117;" horiz-adv-x="659" 
d="M188 198l-123 -122l-37 37l123 121q-48 65 -48 142q0 80 47 138l-123 123l39 37l122 -120q34 26 69.5 39t72.5 13q73 0 141 -52l122 120l39 -37l-123 -123q48 -58 48 -138q0 -77 -49 -142l123 -121l-37 -37l-123 122q-33 -23 -68 -35t-73 -12q-77 0 -142 47zM330 205
q71 0 122 51t51 123t-51 123t-122 51q-73 0 -123.5 -51t-50.5 -123t50.5 -123t123.5 -51z" />
    <glyph glyph-name="uniE001" unicode="&#xe001;" horiz-adv-x="500" 
 />
    <glyph glyph-name="FL587" unicode="&#xe11b;" horiz-adv-x="500" 
 />
    </font>
</defs>
</svg>
