<?xml version="1.0" standalone="no"?>
<!DOCTYPE svg PUBLIC "-//W3C//DTD SVG 1.1//EN" "http://www.w3.org/Graphics/SVG/1.1/DTD/svg11.dtd" >
<svg xmlns="http://www.w3.org/2000/svg" xmlns:xlink="http://www.w3.org/1999/xlink" version="1.1">
<metadata>
Created by FontForge 20161003 at Wed Jul 17 03:11:15 2019
 By www-data
</metadata>
<defs>
<font id="RMTiare" horiz-adv-x="556" >
  <font-face 
    font-family="RMTiare"
    font-weight="400"
    font-stretch="normal"
    units-per-em="1000"
    panose-1="0 0 4 0 0 0 0 0 0 0"
    ascent="800"
    descent="-200"
    x-height="519"
    cap-height="716"
    bbox="-221 -209 1000 913"
    underline-thickness="73"
    underline-position="-142"
    unicode-range="U+0020-F002"
  />
<missing-glyph horiz-adv-x="500" 
d="M375 63v771h-250v-771h250zM63 896h375v-896h-375v896z" />
    <glyph glyph-name=".notdef" horiz-adv-x="500" 
d="M375 63v771h-250v-771h250zM63 896h375v-896h-375v896z" />
    <glyph glyph-name=".null" horiz-adv-x="0" 
 />
    <glyph glyph-name="nonmarkingreturn" horiz-adv-x="278" 
 />
    <glyph glyph-name="space" unicode=" " horiz-adv-x="278" 
 />
    <glyph glyph-name="exclam" unicode="!" horiz-adv-x="278" 
d="M90 100h101v-100h-101v100zM86 557v159h109v-159l-26 -379h-56z" />
    <glyph glyph-name="quotedbl" unicode="&#x22;" horiz-adv-x="355" 
d="M208 599v117h100v-117l-23 -137h-53zM46 599v117h100v-117l-22 -137h-54z" />
    <glyph glyph-name="numbersign" unicode="#" 
d="M334 269l37 177h-154l-36 -177h153zM93 196h-83v73h97l37 177h-134v73h148l43 209h73l-43 -209h154l43 209h73l-42 -209h84v-73h-99l-36 -177h135v-73h-150l-42 -207h-74l42 207h-153l-42 -207h-74z" />
    <glyph glyph-name="dollar" unicode="$" 
d="M301 59q53 7 85.5 46t32.5 93q0 55 -33 86q-13 11 -34 22t-51 21v-268v0zM249 667q-49 -7 -79 -39q-31 -32 -31 -81q0 -89 110 -124v244v0zM249 -14q-63 7 -102 26q-46 23 -76 70.5t-35 116.5l88 16q11 -71 36 -104q38 -48 89 -52v280q-54 11 -111 42q-87 50 -87 159
q0 94 66 152q45 39 132 48v42h52v-42q169 -17 191 -177l-91 -13q-15 98 -100 116v-254q34 -8 55.5 -14.5t32.5 -11.5q78 -34 107 -105q13 -35 13 -77q0 -94 -58 -153t-150 -64v-89h-52v88z" />
    <glyph glyph-name="percent" unicode="%" horiz-adv-x="889" 
d="M674 292q-76 0 -76 -133q0 -125 76 -125q77 0 77 132q0 126 -77 126zM521 168q0 78 36 127q41 57 115 57q79 0 119 -58q37 -49 37 -131q0 -81 -37 -131q-42 -57 -119 -57q-76 0 -117 60q-34 50 -34 133zM603 728h71l-390 -753h-73zM211 667q-76 0 -76 -132
q0 -125 76 -125q77 0 77 132q0 125 -77 125zM58 544q0 78 36 127q41 57 114 57q78 0 120 -58q36 -49 36 -131q0 -79 -37 -131q-42 -58 -118 -58q-77 0 -117 61q-34 50 -34 133z" />
    <glyph glyph-name="ampersand" unicode="&#x26;" horiz-adv-x="667" 
d="M259 354q-121 -73 -121 -151q0 -55 38 -96q41 -42 95 -42q42 0 84 27t65 62zM296 458q45 26 63 45q28 29 28 70q0 35 -22.5 59t-58.5 24q-35 0 -59 -22.5t-24 -56.5q0 -36 34 -74l39 -45v0zM475 84q-87 -95 -205 -95q-111 0 -175 73q-52 61 -52 135q0 133 170 214
q-80 94 -80 157q0 71 55 117q50 43 123 43q67 0 116 -41q50 -44 50 -112q0 -102 -135 -174l128 -164q22 42 34 100l92 -20q-24 -93 -64 -154q49 -64 112 -110l-59 -69q-26 17 -53.5 42t-56.5 58z" />
    <glyph glyph-name="quotesingle" unicode="'" horiz-adv-x="191" 
d="M44 596v120h100v-120l-23 -134h-55z" />
    <glyph glyph-name="parenleft" unicode="(" horiz-adv-x="333" 
d="M234 -209q-173 218 -173 468q0 237 173 469h63q-29 -51 -48.5 -87t-29.5 -58q-68 -156 -68 -324q0 -235 146 -468h-63v0z" />
    <glyph glyph-name="parenright" unicode=")" horiz-adv-x="333" 
d="M37 -209q146 233 146 468q0 167 -68 323q-20 47 -78 146h63q173 -232 173 -469q0 -248 -173 -468h-63z" />
    <glyph glyph-name="asterisk" unicode="*" horiz-adv-x="389" 
d="M54 654q78 -29 113 -48q-5 45 -7.5 75t-2.5 47h71q-1 -47 -12 -121q26 13 55 24.5t61 22.5l22 -70q-61 -19 -122 -27q29 -24 84 -92l-58 -42q-14 20 -31 46t-36 59q-37 -71 -64 -105l-57 42q28 35 48 58t33 34q-63 12 -120 27z" />
    <glyph glyph-name="plus" unicode="+" horiz-adv-x="584" 
d="M250 312h-194v82h194v195h83v-195h195v-82h-195v-196h-83v196z" />
    <glyph glyph-name="comma" unicode="," horiz-adv-x="278" 
d="M89 100h100v-100q0 -105 -82 -141l-24 38q53 23 56 103h-50v100z" />
    <glyph glyph-name="ch173" unicode="-" horiz-adv-x="333" 
d="M32 303h270v-88h-270v88z" />
    <glyph glyph-name="period" unicode="." horiz-adv-x="278" 
d="M91 100h100v-100h-100v100z" />
    <glyph glyph-name="slash" unicode="/" horiz-adv-x="278" 
d="M208 728h70l-207 -739h-71z" />
    <glyph glyph-name="zero" unicode="0" 
d="M132 353q0 -119 19 -182q33 -111 124 -111q143 0 143 293q0 120 -19 183q-33 110 -125 110q-61 0 -97 -51q-45 -64 -45 -242zM42 353q0 238 104 324q51 42 129 42q115 0 173 -90q60 -94 60 -276q0 -238 -103 -323q-52 -41 -130 -41q-233 0 -233 364z" />
    <glyph glyph-name="one" unicode="1" 
d="M285 0v560q-69 -66 -176 -106v85q155 72 207 180h57v-719h-88z" />
    <glyph glyph-name="two" unicode="2" 
d="M503 0h-473q-1 30 11 61q33 91 172 204q45 36 76 64t49 48q74 82 74 145q0 57 -40 91q-37 33 -95 33q-66 0 -102.5 -39t-37.5 -105l-90 10q9 102 70 155q59 52 162 52q96 0 157 -52q66 -54 66 -147q0 -86 -75 -172q-21 -23 -54.5 -54.5t-81.5 -71.5q-66 -55 -75 -63
q-42 -39 -64 -75h351v-84z" />
    <glyph glyph-name="three" unicode="3" 
d="M130 201q29 -141 140 -141q63 0 105 43q42 44 42 106q0 31 -10.5 57t-29 44.5t-44.5 28.5t-56 10q-26 0 -62 -10l10 77q5 -1 8 -1h6q60 0 101 29q45 33 45 91q0 50 -33 81q-34 30 -84 30q-109 0 -129 -128l-88 15q15 88 71 137t144 49q56 0 104 -24q52 -25 80 -70
q26 -44 26 -92q0 -100 -99 -145q66 -15 100 -63q34 -46 34 -114q0 -97 -72 -162q-68 -60 -169 -60q-93 0 -156 53q-63 56 -72 147z" />
    <glyph glyph-name="four" unicode="4" 
d="M323 575l-224 -323h224v323zM323 171h-310v81l326 464h72v-464h97v-81h-97v-171h-88v171z" />
    <glyph glyph-name="five" unicode="5" 
d="M134 195q9 -60 42 -96q38 -39 95 -39q71 0 113 54q39 50 39 121q0 73 -40 116q-42 46 -113 46q-86 0 -130 -69l-83 10l69 378h356v-84h-285l-39 -202q65 45 135 45q99 0 162 -68q61 -65 61 -164q0 -97 -57 -168q-69 -85 -188 -85q-95 0 -157 50q-63 54 -72 148z" />
    <glyph glyph-name="six" unicode="6" 
d="M139 232q0 -104 73 -150q34 -22 73 -22q64 0 102 53q33 47 33 114q0 68 -35 112q-37 48 -104 48q-64 0 -104 -46q-38 -44 -38 -109zM410 534q-12 53 -33 75q-34 37 -88 37q-92 0 -139 -111q-23 -57 -25 -166q63 95 174 95q96 0 154 -69q57 -66 57 -163q0 -65 -27 -121
q-14 -31 -35 -53.5t-47 -38.5q-49 -30 -115 -30q-137 0 -199 110q-49 88 -49 236q0 384 256 384q85 0 139 -46.5t65 -131.5z" />
    <glyph glyph-name="seven" unicode="7" 
d="M47 717h464v-69q-76 -92 -144 -217q-61 -117 -96 -234q-25 -91 -33 -197h-91q2 101 39 224q17 57 38.5 109.5t47.5 101.5q58 110 126 197h-351v85z" />
    <glyph glyph-name="eight" unicode="8" 
d="M131 207q0 -89 71 -127q35 -20 75 -20q32 0 58.5 10.5t45.5 30t30 46t11 57.5q0 32 -11 58.5t-31 46t-47 30.5t-59 11q-62 0 -103 -41q-40 -40 -40 -102zM159 537q0 -52 33 -83.5t85 -31.5q49 0 82.5 30.5t33.5 79.5q0 25 -9 46t-25 36t-37.5 23.5t-45.5 8.5
q-47 0 -82 -30q-35 -32 -35 -79zM177 388q-108 41 -108 146q0 85 62 136q56 49 144 49q86 0 145 -50q63 -52 63 -137q0 -104 -106 -144q135 -43 135 -183q0 -99 -70 -160q-67 -56 -166 -56t-167 57q-68 62 -68 161q0 147 136 181z" />
    <glyph glyph-name="nine" unicode="9" 
d="M415 481q0 67 -35 114q-37 51 -103 51t-107 -54q-38 -50 -38 -118q0 -64 38 -108q40 -46 105 -46q68 0 105 48q35 46 35 113zM139 173q21 -113 119 -113q77 0 121 68q46 73 46 191v7q0 5 -1 11q-27 -45 -73 -69.5t-98 -24.5q-97 0 -155 70q-56 67 -56 164q0 104 60 171
q62 71 165 71q72 0 129 -39t86 -106q30 -70 30 -201q0 -258 -118 -343q-59 -41 -138 -41q-85 0 -138 46t-63 131z" />
    <glyph glyph-name="colon" unicode=":" horiz-adv-x="278" 
d="M90 100h100v-100h-100v100zM90 519h100v-101h-100v101z" />
    <glyph glyph-name="semicolon" unicode=";" horiz-adv-x="278" 
d="M89 100h100v-100q0 -105 -82 -141l-24 38q53 23 56 103h-50v100zM89 519h100v-101h-100v101z" />
    <glyph glyph-name="less" unicode="&#x3c;" horiz-adv-x="584" 
d="M55 395l474 200v-87l-376 -154l376 -156v-88l-474 203v82z" />
    <glyph glyph-name="equal" unicode="=" horiz-adv-x="584" 
d="M56 204v82h472v-82h-472zM56 421v82h472v-82h-472z" />
    <glyph glyph-name="greater" unicode="&#x3e;" horiz-adv-x="584" 
d="M55 110v88l375 156l-375 154v87l474 -200v-82z" />
    <glyph glyph-name="question" unicode="?" 
d="M225 100h100v-100h-100v100zM230 203q0 52 15 89q5 14 14 28.5t20 28.5q7 8 23 23.5t42 38.5q22 20 36 35t22 28.5t11 26t3 26.5q0 55 -42 92q-40 37 -97 37q-121 0 -143 -145l-90 10q12 100 72 153.5t160 53.5q94 0 159 -50q71 -54 71 -145q0 -54 -32 -103
q-22 -32 -76 -80q-36 -31 -45 -43q-24 -27 -31 -55q-3 -11 -4.5 -30.5t-2.5 -45.5h-85v27z" />
    <glyph glyph-name="at" unicode="@" horiz-adv-x="1015" 
d="M331 212q0 -53 24 -94q29 -47 80 -47q60 0 116 65q62 74 62 181q0 57 -27 96q-32 44 -86 44q-63 0 -112 -67q-57 -78 -57 -178zM567 80q-71 -80 -150 -80q-101 0 -151 102q-26 54 -26 116q0 74 38 152q39 79 101 120q59 39 115 39q92 0 147 -90l17 76h87l-70 -327
q-15 -69 -15 -76q0 -14 10.5 -23t23.5 -9q25 0 68 29q28 20 50.5 47t38 58.5t24 66t8.5 69.5q0 88 -44 156.5t-122 108.5q-82 43 -183 43q-114 0 -208 -53q-96 -54 -148 -154t-52 -214q0 -117 49 -200q52 -90 154 -133q99 -41 218 -41q105 0 190 33q99 37 154 113h88
q-30 -60 -98 -113q-60 -48 -131 -75q-84 -30 -202 -30q-227 0 -356 111q-138 119 -138 327q0 120 49 227q123 273 435 273q119 0 213 -47q102 -52 157 -150q47 -85 47 -184q0 -142 -100 -251q-89 -98 -194 -98q-64 0 -85 39q-6 12 -9 42z" />
    <glyph glyph-name="A" unicode="A" horiz-adv-x="667" 
d="M448 294l-75 198q-34 90 -51 149q-13 -70 -38 -137l-79 -210h243zM273 716h102l293 -716h-107l-84 217h-299l-79 -217h-99z" />
    <glyph glyph-name="B" unicode="B" horiz-adv-x="667" 
d="M346 84q48 0 65 4q64 12 90 59q15 26 15 61q0 86 -78 111q-36 12 -105 12h-165v-247h178zM323 415q60 0 90 8q73 22 73 98q0 80 -66 101q-31 9 -109 9h-143v-216h155zM73 716h269q153 0 209 -89q28 -44 28 -94q0 -103 -100 -152q64 -20 98 -63q37 -46 37 -110
q0 -105 -74 -161q-64 -47 -194 -47h-273v716z" />
    <glyph glyph-name="C" unicode="C" horiz-adv-x="722" 
d="M683 227q-29 -113 -104 -175q-78 -62 -193 -62q-220 0 -298 181q-38 91 -38 192q0 232 164 322q79 43 174 43q106 0 179.5 -53t102.5 -155l-93 -22q-48 149 -191 149q-77 0 -134 -36q-58 -37 -82 -110q-23 -67 -23 -137q0 -196 110 -261q55 -34 121 -34q169 0 210 182z
" />
    <glyph glyph-name="D" unicode="D" horiz-adv-x="722" 
d="M325 84q126 0 175 51q71 71 71 228q0 205 -126 254q-39 14 -123 14h-150v-547h153zM77 716h247q42 0 73.5 -2.5t53.5 -7.5q136 -31 190 -174q28 -72 28 -170q0 -154 -68 -249q-56 -79 -150 -101q-51 -12 -116 -12h-258v716z" />
    <glyph glyph-name="E" unicode="E" horiz-adv-x="667" 
d="M79 716h518v-85h-423v-219h396v-84h-396v-244h439v-84h-534v716z" />
    <glyph glyph-name="F" unicode="F" horiz-adv-x="611" 
d="M82 716h483v-85h-388v-221h336v-85h-336v-325h-95v716z" />
    <glyph glyph-name="G" unicode="G" horiz-adv-x="778" 
d="M412 365h303v-265q-139 -111 -296 -111q-103 0 -187 41q-90 46 -135 134q-44 86 -44 190q0 102 41 189q45 96 129 141q83 44 189 44q163 0 238 -95q35 -44 55 -117l-86 -24q-30 103 -108 136q-44 19 -99 19q-123 0 -188 -72q-73 -79 -73 -215q0 -191 129 -256
q62 -31 134 -31q50 0 110 20q62 21 99 54v134h-211v84z" />
    <glyph glyph-name="H" unicode="H" horiz-adv-x="722" 
d="M79 716h94v-294h372v294h95v-716h-95v337h-372v-337h-94v716z" />
    <glyph glyph-name="I" unicode="I" horiz-adv-x="278" 
d="M93 716h95v-716h-95v716z" />
    <glyph glyph-name="J" unicode="J" horiz-adv-x="500" 
d="M114 215q3 -68 22 -99q26 -44 85 -44q76 0 97 61q10 27 10 90v493h94v-488q0 -165 -90 -214q-46 -25 -111 -25q-196 0 -192 214z" />
    <glyph glyph-name="K" unicode="K" horiz-adv-x="667" 
d="M73 716h95v-355l355 355h129l-300 -290l313 -426h-125l-255 362l-117 -114v-248h-95v716z" />
    <glyph glyph-name="L" unicode="L" 
d="M73 716h95v-632h353v-84h-448v716z" />
    <glyph glyph-name="M" unicode="M" horiz-adv-x="833" 
d="M74 716h143l169 -507q11 -32 19 -58t15 -48q7 22 16.5 51t21.5 64l172 498h127v-716h-91v599l-208 -599h-85l-207 609v-609h-92v716z" />
    <glyph glyph-name="N" unicode="N" horiz-adv-x="722" 
d="M76 716h97l376 -562v562h91v-716h-97l-376 563v-563h-91v716z" />
    <glyph glyph-name="O" unicode="O" horiz-adv-x="778" 
d="M146 347q0 -118 62 -195q66 -83 182 -83q120 0 186 86q59 80 59 202q0 181 -115 254q-58 36 -128 36q-127 0 -190 -90q-56 -79 -56 -210zM48 349q0 166 87 269q93 111 256 111q98 0 177 -46q81 -48 123 -133t42 -193q0 -106 -40 -187q-43 -91 -129 -138q-79 -43 -173 -43
q-99 0 -178 46q-80 48 -124 135q-41 85 -41 179z" />
    <glyph glyph-name="P" unicode="P" horiz-adv-x="667" 
d="M357 375q169 0 169 131q0 43 -21 74q-23 35 -62 45q-22 6 -88 6h-183v-256h185zM77 716h270q35 0 62 -1.5t47 -5.5q106 -18 146 -103q22 -43 22 -97q0 -218 -269 -218h-183v-291h-95v716z" />
    <glyph glyph-name="Q" unicode="Q" horiz-adv-x="778" 
d="M411 198q83 -22 135 -69q84 77 84 229q0 179 -116 253q-57 36 -128 36q-122 0 -187 -86q-58 -76 -58 -203q0 -124 59 -203q66 -86 186 -86q52 0 96 19q-44 29 -94 41l23 69v0zM620 77q65 -46 121 -67l-28 -65q-76 28 -153 87q-79 -43 -176 -43q-96 0 -176 45
q-81 48 -123 132t-42 192q0 104 40 185q44 94 125 140q79 46 178 46q98 0 177 -46q81 -48 123 -132.5t42 -192.5q0 -177 -108 -281z" />
    <glyph glyph-name="R" unicode="R" horiz-adv-x="722" 
d="M377 400q121 0 157 57q19 28 19 64q0 116 -153 116h-227v-237h204zM79 716h317q84 0 126 -13q65 -19 99 -75q30 -48 30 -107q0 -167 -202 -195q38 -19 57 -36q42 -37 79 -95l124 -195h-119l-94 149q-16 25 -29 44.5t-24 33.5q-19 26 -35 43t-29 25q-22 14 -43 19
q-13 4 -53 4h-110v-318h-94v716z" />
    <glyph glyph-name="S" unicode="S" horiz-adv-x="667" 
d="M134 238q12 -105 102 -144q50 -21 110 -21q114 0 157 60q20 29 20 61q0 70 -84 101q-17 7 -50 16t-84 21q-44 10 -76.5 21t-54.5 22q-102 54 -102 156q0 59 33 105q34 46 88 68q59 24 131 24q168 0 234 -101q34 -50 35 -113l-91 -7q-13 138 -174 138q-64 0 -108 -21
q-56 -29 -56 -87q0 -55 61 -83q13 -7 40 -14.5t69 -16.5q58 -14 97.5 -25t61.5 -21q122 -56 122 -175q0 -61 -36 -112q-35 -49 -91 -74q-61 -27 -138 -27q-191 0 -266 113q-37 55 -39 128z" />
    <glyph glyph-name="T" unicode="T" horiz-adv-x="611" 
d="M259 631h-236v85h568v-85h-237v-631h-95v631z" />
    <glyph glyph-name="U" unicode="U" horiz-adv-x="722" 
d="M642 716v-414q0 -99 -19 -155q-26 -78 -94 -119q-64 -39 -167 -39q-200 0 -256 134q-27 65 -27 179v414h94v-413q0 -75 11 -116q17 -61 66 -90q42 -24 104 -24q113 0 157 59q36 50 36 171v413h95z" />
    <glyph glyph-name="V" unicode="V" horiz-adv-x="667" 
d="M4 716h103l186 -520q11 -32 20.5 -61.5t17.5 -55.5q8 28 17.5 57t20.5 60l194 520h96l-280 -716h-97z" />
    <glyph glyph-name="W" unicode="W" horiz-adv-x="944" 
d="M12 716h97l109 -469q10 -42 17.5 -78.5t13.5 -68.5l32 132l136 484h114l103 -362q20 -69 33.5 -132.5t21.5 -121.5q12 56 36 156l112 460h96l-197 -716h-91l-151 545q-10 35 -15 56t-7 28q-10 -46 -21 -84l-152 -545h-97z" />
    <glyph glyph-name="X" unicode="X" horiz-adv-x="667" 
d="M281 373l-244 343h113l130 -184q42 -60 57 -88q11 18 25.5 38.5t31.5 43.5l144 190h103l-251 -338l271 -378h-118l-180 255q-6 9 -13.5 21t-17.5 27q-13 -21 -21 -34.5t-13 -18.5l-180 -250h-114z" />
    <glyph glyph-name="Y" unicode="Y" horiz-adv-x="667" 
d="M279 303l-276 413h115l141 -216q18 -28 36 -58t37 -63q35 62 78 126l139 211h110l-285 -413v-303h-95v303z" />
    <glyph glyph-name="Z" unicode="Z" horiz-adv-x="611" 
d="M20 88l367 458q20 25 38.5 46t35.5 39h-399v85h512v-85l-445 -547h457v-84h-566v88z" />
    <glyph glyph-name="bracketleft" unicode="[" horiz-adv-x="278" 
d="M68 716h194v-73h-106v-768h106v-73h-194v914z" />
    <glyph glyph-name="backslash" unicode="\" horiz-adv-x="278" 
d="M0 728h71l207 -739h-70z" />
    <glyph glyph-name="bracketright" unicode="]" horiz-adv-x="278" 
d="M19 -198v73h106v768h-106v73h194v-914h-194z" />
    <glyph glyph-name="asciicircum" unicode="^" horiz-adv-x="469" 
d="M26 337l173 391h71l173 -391h-89l-120 291l-117 -291h-91z" />
    <glyph glyph-name="underscore" unicode="_" 
d="M-14 -134h581v-64h-581v64z" />
    <glyph glyph-name="grave" unicode="`" horiz-adv-x="333" 
d="M156 583l-113 137h118l66 -137h-71z" />
    <glyph glyph-name="a" unicode="a" 
d="M397 260q-48 -19 -144 -33q-43 -6 -61 -12q-34 -10 -50 -34q-12 -19 -12 -42q0 -40 33 -63q28 -19 71 -19q108 0 149 83q14 31 14 88v32v0zM404 64q-88 -75 -191 -75q-76 0 -123 35q-54 39 -54 113q0 77 63 120q14 10 30 17t33 12q13 3 32.5 6l45.5 7q108 14 157 30v23
q0 54 -24 76q-34 30 -101 30q-60 0 -89 -21q-31 -21 -46 -78l-86 12q22 108 116 141q51 18 118 18q124 0 169 -54q20 -25 27 -60q5 -23 5 -82v-117v-111q4 -62 28 -106h-92q-14 27 -18 64z" />
    <glyph glyph-name="b" unicode="b" 
d="M146 263q0 -94 25 -135q42 -67 113 -67q72 0 111 66q30 56 30 133q0 79 -29 132q-36 66 -108 66t-110 -65q-32 -55 -32 -130zM65 0v716h88v-256q55 70 142 70q104 0 162 -73q58 -74 58 -190q0 -114 -54 -191q-61 -87 -170 -87q-92 0 -144 76v-65h-82z" />
    <glyph glyph-name="c" unicode="c" horiz-adv-x="500" 
d="M491 179q-13 -88 -71 -138q-58 -51 -145 -51q-116 0 -179 76q-57 72 -57 191q0 180 113 242q55 31 123 31q82 0 137 -41q55 -43 70 -123l-85 -13q-24 105 -118 105q-150 0 -150 -198q0 -199 145 -199q112 0 130 129z" />
    <glyph glyph-name="d" unicode="d" 
d="M125 259q0 -77 30 -133q38 -65 111 -65q70 0 108 62q30 51 30 128q0 83 -29 138q-37 69 -113 69q-74 0 -110 -66q-27 -52 -27 -133zM402 65q-49 -76 -145 -76q-64 0 -115.5 34.5t-78.5 94.5q-29 63 -29 141q0 170 104 238q51 33 115 33q92 0 143 -71v257h88v-716h-82v65z
" />
    <glyph glyph-name="e" unicode="e" 
d="M422 309q-6 67 -33 98q-42 51 -109 51q-65 0 -105 -43q-39 -42 -43 -106h290zM512 156q-47 -167 -228 -167q-119 0 -185 74q-62 71 -62 192q0 120 60 195q65 80 182 80q114 0 178 -79q58 -73 58 -191v-10q0 -5 -1 -13h-387q5 -76 42 -123q42 -53 115 -53q100 0 137 106z
" />
    <glyph glyph-name="f" unicode="f" horiz-adv-x="278" 
d="M87 450h-78v69h78v55q0 52 9 77q29 77 134 77q38 0 83 -9l-14 -76q-14 2 -26.5 3t-24.5 1q-43 0 -59 -19q-15 -18 -15 -62v-47h101v-69h-101v-450h-87v450z" />
    <glyph glyph-name="g" unicode="g" 
d="M123 269q0 -81 29 -133q36 -63 113 -63q74 0 112 62q30 50 30 131q0 77 -32 130q-39 62 -112 62q-71 0 -109 -62q-31 -50 -31 -127zM135 -55q6 -39 30 -57q32 -25 89 -25q115 0 140 93q6 25 6 112q-59 -68 -144 -68q-106 0 -168 80q-56 73 -56 182q0 164 105 234
q50 34 120 34q92 0 151 -74v63h81v-449q0 -94 -14 -142q-23 -72 -88 -108q-55 -29 -132 -29q-90 0 -145 37q-62 44 -60 130z" />
    <glyph glyph-name="h" unicode="h" 
d="M66 716h88v-257q62 71 155 71q122 0 161 -85q18 -40 18 -116v-329h-88v329q0 126 -109 126q-38 0 -73 -20q-35 -21 -49.5 -55.5t-14.5 -95.5v-284h-88v716z" />
    <glyph glyph-name="i" unicode="i" horiz-adv-x="222" 
d="M66 519h88v-519h-88v519zM66 716h88v-101h-88v101z" />
    <glyph glyph-name="j" unicode="j" horiz-adv-x="222" 
d="M-28 -125q24 -7 40 -7q39 0 49 37q4 16 4 70v544h88v-546q0 -97 -25 -134q-31 -48 -105 -48q-35 0 -68 9zM65 716h88v-102h-88v102z" />
    <glyph glyph-name="k" unicode="k" horiz-adv-x="500" 
d="M66 716h88v-408l208 211h114l-198 -193l218 -326h-108l-172 265l-62 -59v-206h-88v716z" />
    <glyph glyph-name="l" unicode="l" horiz-adv-x="222" 
d="M64 716h88v-716h-88v716z" />
    <glyph glyph-name="m" unicode="m" horiz-adv-x="833" 
d="M66 519h79v-73q54 84 157 84q115 0 146 -91q61 91 160 91q161 0 161 -174v-356h-88v327q0 41 -5 63q-7 33 -34 50q-23 14 -53 14q-66 0 -98 -45q-29 -41 -29 -108v-301h-88v337q0 117 -92 117q-85 0 -114 -77q-14 -39 -14 -108v-269h-88v519z" />
    <glyph glyph-name="n" unicode="n" 
d="M66 519h79v-74q57 85 165 85q102 0 145 -61q19 -27 27 -65q2 -12 3.5 -33t1.5 -52v-319h-88v315q0 95 -46 123q-25 16 -61 16q-138 0 -138 -171v-283h-88v519z" />
    <glyph glyph-name="o" unicode="o" 
d="M124 259q0 -83 33 -136q41 -62 119 -62q80 0 120 64q33 53 33 137q0 81 -35 134q-41 62 -118 62q-78 0 -119 -63q-33 -52 -33 -136zM33 259q0 143 80 214q68 57 163 57q115 0 181 -75q62 -73 62 -188q0 -182 -117 -247q-58 -31 -126 -31q-118 0 -183 77q-60 72 -60 193z
" />
    <glyph glyph-name="p" unicode="p" 
d="M146 256q0 -78 29 -131q36 -64 109 -64q75 0 112 67q30 56 30 136q0 77 -30 131q-36 66 -108 66t-111 -70q-31 -56 -31 -135zM66 519h80v-68q57 79 150 79q140 0 194 -130q26 -64 26 -137q0 -170 -111 -241q-55 -33 -115 -33q-83 0 -136 65v-252h-88v717z" />
    <glyph glyph-name="q" unicode="q" 
d="M125 261q0 -81 31 -134q38 -66 112 -66q71 0 107 64q30 51 30 128q0 80 -30 137q-39 71 -113 71q-73 0 -109 -67q-28 -52 -28 -133zM396 55q-46 -66 -135 -66q-107 0 -170 86q-56 79 -56 189q0 169 106 235q50 31 113 31q96 0 151 -81v70h79v-717h-88v253z" />
    <glyph glyph-name="r" unicode="r" horiz-adv-x="333" 
d="M65 519h79v-79q50 90 112 90q45 0 91 -28l-31 -82q-31 19 -64 19q-64 0 -85 -65q-14 -48 -14 -103v-271h-88v519z" />
    <glyph glyph-name="s" unicode="s" horiz-adv-x="500" 
d="M118 168q15 -107 134 -107q47 0 79 17q40 22 40 65q0 30 -26 47q-16 12 -90 30q-41 10 -67 17t-38 12q-63 25 -85 63q-20 32 -20 69q0 69 59 113q50 36 132 36q128 0 176 -65q22 -30 30 -80l-86 -12q-12 85 -113 85q-113 0 -113 -67q0 -37 45 -54q7 -2 26 -8t51 -15
q44 -11 69 -18.5t33 -10.5q62 -23 86 -57q21 -31 21 -76q0 -98 -99 -142q-49 -21 -110 -21q-191 0 -221 166z" />
    <glyph glyph-name="t" unicode="t" horiz-adv-x="278" 
d="M271 1q-19 -4 -36 -5.5t-31 -1.5q-87 0 -111 54q-11 27 -11 104v298h-64v69h64v128l87 53v-181h89v-69h-89v-303q0 -40 7 -51q11 -21 43 -21q8 0 17.5 1t21.5 3z" />
    <glyph glyph-name="u" unicode="u" 
d="M406 76q-61 -87 -165 -87q-40 0 -79 14q-44 17 -65 47q-21 29 -28 65q-2 14 -3.5 34t-1.5 48v322h88v-288q0 -68 5 -93q17 -74 102 -74q39 0 73 19q36 21 50 56t14 102v278h88v-519h-78v76z" />
    <glyph glyph-name="v" unicode="v" horiz-adv-x="500" 
d="M13 519h92l112 -311q17 -49 33 -104q13 43 33 98l115 317h90l-196 -519h-82z" />
    <glyph glyph-name="w" unicode="w" horiz-adv-x="722" 
d="M3 519h91l113 -411q2 10 9 36.5t18 70.5l82 304h91l103 -400l119 400h85l-162 -519h-91l-83 311l-20 88l-105 -399h-91z" />
    <glyph glyph-name="x" unicode="x" horiz-adv-x="500" 
d="M197 270l-176 249h110l80 -122q10 -16 19 -30t17 -28q8 13 18.5 27t21.5 30l87 123h105l-179 -245l193 -274h-108l-135 205l-136 -205h-107z" />
    <glyph glyph-name="y" unicode="y" horiz-adv-x="500" 
d="M52 -116q30 -8 51 -8q53 0 75 37q9 13 27 66q1 2 2.5 6t3.5 10l2 5l-197 519h95l108 -301q11 -31 20 -61t17 -59q8 31 17 60.5t19 57.5l111 303h88l-197 -527q-16 -43 -28.5 -72t-20.5 -45q-46 -84 -126 -84q-27 0 -57 10z" />
    <glyph glyph-name="z" unicode="z" horiz-adv-x="500" 
d="M20 71l330 379q-57 -3 -100 -3h-211v72h424v-59l-335 -389q29 2 57 3.5t54 1.5h240v-76h-459v71z" />
    <glyph glyph-name="braceleft" unicode="{" horiz-adv-x="334" 
d="M28 299q76 1 93 73q4 17 5.5 45.5t2.5 69.5q-1 38 3 108q10 105 91 128q18 5 60 5h28v-77h-16q-53 0 -70 -23q-14 -20 -14 -77q0 -65 -1.5 -105t-3.5 -56q-4 -25 -11 -45t-18.5 -35.5t-28 -27.5t-39.5 -23q65 -27 87 -91q15 -43 15 -129q0 -48 0.5 -76t1.5 -36
q4 -36 25 -50q16 -10 57 -10h16v-76h-28q-49 0 -69 7q-68 24 -78 100q-6 36 -6 126q-2 83 -9 122q-17 72 -93 73v80v0z" />
    <glyph glyph-name="bar" unicode="|" horiz-adv-x="260" 
d="M92 728h76v-937h-76v937z" />
    <glyph glyph-name="braceright" unicode="}" horiz-adv-x="334" 
d="M306 219q-76 -1 -93 -73q-4 -17 -6 -45.5t-2 -69.5q0 -35 -3 -107q-11 -105 -91 -128q-10 -2 -25 -3.5t-36 -1.5h-27v76h15q55 0 71 24q13 17 13 77q0 61 1 99.5t3 54.5q15 102 98 137q-65 32 -87 91q-15 41 -15 129q0 46 -0.5 74.5t-1.5 39.5q-4 36 -25 49q-16 9 -57 9
h-15v77h27q46 0 70 -8q66 -22 78 -100q3 -18 4.5 -48.5t0.5 -75.5q0 -83 10 -123q17 -73 93 -74v-80z" />
    <glyph glyph-name="asciitilde" unicode="~" horiz-adv-x="584" 
d="M42 372q53 59 136 59q55 0 154 -43q55 -23 84 -23q65 0 126 67v-103q-61 -56 -135 -56q-53 0 -140 40q-57 25 -97 25q-59 0 -128 -66v100z" />
    <glyph glyph-name="Euro" unicode="&#x20ac;" 
d="M386 647q-83 0 -138 -40q-17 -12 -32.5 -29.5t-28 -37.5t-20.5 -41.5t-11 -41.5h333l-13 -66h-328q-1 -5 -1 -10v-9q0 -40 1 -45h314l-13 -66h-291q21 -111 99 -158q55 -34 121 -34q92 0 143 48v-101q-61 -27 -135 -27q-220 0 -298 182q-16 38 -27 90h-74l13 66h51
q-1 10 -1 21v23v20h-63l13 66h57q30 159 157 228q79 43 174 43q92 0 153 -40l-20 -90q-59 49 -135 49z" />
    <glyph glyph-name="quotesinglbase" unicode="&#x201a;" horiz-adv-x="222" 
d="M61 102h94v-81q0 -65 -15 -93q-21 -40 -66 -59l-21 34q52 21 53 97h-45v102z" />
    <glyph glyph-name="florin" unicode="&#x192;" 
d="M40 -121q25 -5 43 -8t31 -3q32 0 47 22q9 13 15 52l87 508h-98l11 69h98l12 64q11 60 22 81q33 65 117 65q41 0 105 -19l-17 -75q-51 12 -75 12q-34 0 -48 -23q-8 -12 -16 -55l-10 -50h100l-12 -69h-100l-93 -532q-10 -65 -36 -93q-31 -34 -91 -34q-45 0 -110 12z" />
    <glyph glyph-name="quotedblbase" unicode="&#x201e;" horiz-adv-x="333" 
d="M194 102h94v-81q0 -65 -15 -93q-21 -39 -65 -59l-22 34q51 21 54 97h-46v102zM42 102h95v-81q0 -65 -15 -93q-21 -40 -66 -59l-21 34q50 21 53 97h-46v102z" />
    <glyph glyph-name="ellipsis" unicode="&#x2026;" horiz-adv-x="1000" 
d="M783 100h101v-100h-101v100zM450 100h100v-100h-100v100zM117 100h100v-100h-100v100z" />
    <glyph glyph-name="dagger" unicode="&#x2020;" 
d="M230 423h-194v78h194v198h88v-198h197v-78h-197v-591h-88v591z" />
    <glyph glyph-name="daggerdbl" unicode="&#x2021;" 
d="M232 12h-196v78h196v354h-196v79h196v183h88v-183h197v-79h-197v-354h197v-78h-197v-180h-88v180z" />
    <glyph glyph-name="circumflex" unicode="&#x2c6;" horiz-adv-x="333" 
d="M113 583h-101l106 137h93l110 -137h-99l-54 83z" />
    <glyph glyph-name="perthousand" unicode="&#x2030;" horiz-adv-x="1000" 
d="M774 160q0 -126 70 -126q66 0 66 127q0 128 -68 128t-68 -129zM702 164q0 186 139 186q75 0 111 -58q30 -46 30 -126q0 -191 -140 -191t-140 189zM445 160q0 -126 70 -126q66 0 66 127q0 128 -68 128t-68 -129zM373 164q0 186 139 186q74 0 111 -58q30 -46 30 -126
q0 -191 -140 -191t-140 189zM90 533q0 -126 71 -126q65 0 65 127q0 128 -67 128q-69 0 -69 -129zM18 537q0 185 140 185q74 0 111 -57q29 -47 29 -126q0 -193 -139 -193q-141 0 -141 191zM450 728h64l-293 -753h-65z" />
    <glyph glyph-name="Scaron" unicode="&#x160;" horiz-adv-x="667" 
d="M134 238q12 -105 102 -144q50 -21 110 -21q114 0 157 60q20 29 20 61q0 70 -84 101q-17 7 -50 16t-84 21q-44 10 -76.5 21t-54.5 22q-102 54 -102 156q0 59 33 105q34 46 88 68q59 24 131 24q168 0 234 -101q34 -50 35 -113l-91 -7q-13 138 -174 138q-64 0 -108 -21
q-56 -29 -56 -87q0 -55 61 -83q13 -7 40 -14.5t69 -16.5q58 -14 97.5 -25t61.5 -21q122 -56 122 -175q0 -61 -36 -112q-35 -49 -91 -74q-61 -27 -138 -27q-191 0 -266 113q-37 55 -39 128zM374 894h100l-110 -137h-94l-105 137h100l55 -83z" />
    <glyph glyph-name="guilsinglleft" unicode="&#x2039;" horiz-adv-x="333" 
d="M271 35h-72l-154 222l154 223h72l-129 -223z" />
    <glyph glyph-name="OE" unicode="&#x152;" horiz-adv-x="1000" 
d="M352 651q-58 0 -104 -37q-42 -35 -63 -91q-24 -64 -24 -171q0 -111 38 -189q51 -99 153 -99q106 0 154 104q36 77 36 196q0 113 -39 189q-50 98 -151 98zM968 0h-421v104q-66 -115 -195 -115q-147 0 -223 112q-66 101 -66 258q0 159 63 255q77 114 226 114
q129 0 195 -109v97h406v-85h-317v-218h292v-84h-292v-245h332v-84z" />
    <glyph glyph-name="quoteleft" unicode="&#x2018;" horiz-adv-x="222" 
d="M157 494h-94v80q0 65 15 95q21 39 65 59l22 -34q-53 -23 -54 -98h46v-102z" />
    <glyph glyph-name="quoteright" unicode="&#x2019;" horiz-adv-x="222" 
d="M61 723h94v-80q0 -66 -15 -95q-21 -40 -66 -59l-21 34q51 21 53 98h-45v102z" />
    <glyph glyph-name="quotedblleft" unicode="&#x201c;" horiz-adv-x="333" 
d="M286 494h-94v80q0 66 16 95q20 39 64 59l22 -34q-51 -23 -54 -98h46v-102zM135 494h-94v80q0 65 15 95q21 39 65 59l22 -34q-53 -23 -54 -98h46v-102z" />
    <glyph glyph-name="quotedblright" unicode="&#x201d;" horiz-adv-x="333" 
d="M194 723h94v-80q0 -66 -15 -95q-21 -39 -65 -59l-22 34q51 21 54 98h-46v102zM42 723h95v-80q0 -66 -15 -95q-21 -40 -66 -59l-21 34q50 21 53 98h-46v102z" />
    <glyph glyph-name="bullet" unicode="&#x2022;" horiz-adv-x="350" 
d="M53 351q0 51 36 87t88 36t88 -36t36 -87q0 -52 -36 -88t-88 -36t-88 36t-36 88z" />
    <glyph glyph-name="endash" unicode="&#x2013;" 
d="M-1 294h555v-70h-555v70z" />
    <glyph glyph-name="emdash" unicode="&#x2014;" horiz-adv-x="1000" 
d="M0 294h1000v-70h-1000v70z" />
    <glyph glyph-name="tilde" unicode="&#x2dc;" horiz-adv-x="333" 
d="M3 595q0 47 26 78q27 34 74 34q30 0 82 -27q30 -14 46 -14q30 0 36 42h63q-3 -111 -96 -111q-30 0 -81 27q-31 18 -48 18q-39 0 -37 -47h-65v0z" />
    <glyph glyph-name="trademark" unicode="&#x2122;" horiz-adv-x="1000" 
d="M479 716h98l101 -318l97 318h96v-398h-61v334l-102 -334h-61l-106 339v-339h-62v398zM239 657h-129v59h325v-59h-130v-339h-66v339z" />
    <glyph glyph-name="scaron" unicode="&#x161;" horiz-adv-x="500" 
d="M118 168q15 -107 134 -107q47 0 79 17q40 22 40 65q0 30 -26 47q-16 12 -90 30q-41 10 -67 17t-38 12q-63 25 -85 63q-20 32 -20 69q0 69 59 113q50 36 132 36q128 0 176 -65q22 -30 30 -80l-86 -12q-12 85 -113 85q-113 0 -113 -67q0 -37 45 -54q7 -2 26 -8t51 -15
q44 -11 69 -18.5t33 -10.5q62 -23 86 -57q21 -31 21 -76q0 -98 -99 -142q-49 -21 -110 -21q-191 0 -221 166zM301 720h100l-110 -137h-94l-105 137h100l55 -83z" />
    <glyph glyph-name="guilsinglright" unicode="&#x203a;" horiz-adv-x="333" 
d="M62 480h73l148 -218l-148 -227h-73l129 224z" />
    <glyph glyph-name="oe" unicode="&#x153;" horiz-adv-x="944" 
d="M814 308q-4 66 -40 106q-38 44 -101 44t-104 -44q-37 -40 -42 -106h287zM130 260q0 -91 35 -138q45 -61 117 -61q77 0 117 64q36 56 36 136q0 81 -36 135q-41 62 -117 62q-95 0 -133 -95q-19 -45 -19 -103zM478 85q-75 -96 -194 -96q-117 0 -182 74q-62 73 -62 190
q0 180 116 245q59 32 129 32q61 0 110 -24q55 -26 83 -75q68 99 189 99q124 0 186 -89q56 -77 54 -205h-383q2 -74 40 -123q42 -52 114 -52q103 0 134 108l88 -13q-44 -167 -223 -167q-134 0 -199 96z" />
    <glyph glyph-name="Ydieresis" unicode="&#x178;" horiz-adv-x="667" 
d="M279 303l-276 413h115l141 -216q18 -28 36 -58t37 -63q35 62 78 126l139 211h110l-285 -413v-303h-95v303zM376 860h92v-100h-92v100zM194 860h92v-100h-92v100z" />
    <glyph glyph-name="nonbreakingspace" unicode="&#xa0;" horiz-adv-x="278" 
 />
    <glyph glyph-name="exclamdown" unicode="&#xa1;" horiz-adv-x="333" 
d="M221 -38v-158h-109v158l26 378h56zM217 418h-101v101h101v-101z" />
    <glyph glyph-name="cent" unicode="&#xa2;" 
d="M312 459q-8 1 -14 1h-11q-92 0 -127 -90q-17 -48 -17 -109q0 -130 60 -175l109 373v0zM255 63q18 -5 30 -5q55 0 91 39q33 35 41 93l88 -10q-17 -87 -73 -139q-58 -54 -146 -54q-26 0 -50 7l-58 -193l-54 16l56 193q-66 31 -99 104q-29 63 -29 143q0 180 115 243
q55 31 115 31q9 0 21 -1t28 -3l55 189l54 -16l-55 -189q90 -39 111 -145l-86 -13q-14 57 -47 84z" />
    <glyph glyph-name="sterling" unicode="&#xa3;" 
d="M347 395v-72h-139q10 -21 10 -43q0 -94 -87 -187q39 11 70 11q40 0 91 -12q86 -20 114 -20q36 0 94 27l28 -80q-72 -30 -118 -30q-23 0 -42 4q-22 7 -53.5 15.5t-74.5 19.5q-19 4 -46 4q-76 0 -147 -45l-34 84q112 61 112 191q0 15 -2 30t-6 31h-96v72h76q-25 82 -25 129
q0 102 75 159q60 45 146 45q90 0 147 -48.5t70 -136.5l-88 -13q-6 55 -40 89q-36 37 -90 37q-53 0 -89 -33q-37 -34 -37 -86q0 -55 27 -142h154z" />
    <glyph glyph-name="currency" unicode="&#xa4;" 
d="M149 354q0 -52 37 -89t89 -37q53 0 90 37t37 89q0 53 -37 90t-90 37q-52 0 -89 -37t-37 -90zM36 536l56 58l68 -68q53 35 116 35t116 -35l67 68l57 -58l-68 -67q35 -53 35 -115q0 -60 -35 -115l68 -66l-57 -58l-67 68q-52 -36 -116 -36q-63 0 -116 36l-68 -68l-56 58
l68 66q-35 55 -35 115q0 62 35 115z" />
    <glyph glyph-name="yen" unicode="&#xa5;" 
d="M233 159h-203v68h203v69h-203v73h167l-197 347h96l142 -252q11 -21 20.5 -39.5t16.5 -35.5q13 30 40 79l134 248h104l-198 -347h167v-73h-201v-69h201v-68h-201v-159h-88v159z" />
    <glyph glyph-name="brokenbar" unicode="&#xa6;" horiz-adv-x="260" 
d="M168 -209h-76v385h76v-385zM168 342h-76v386h76v-386z" />
    <glyph glyph-name="section" unicode="&#xa7;" 
d="M355 119q72 38 72 91q0 41 -51 84q-12 11 -33 25t-51 33q-34 20 -58.5 37t-41.5 30q-73 -42 -73 -95q0 -42 44 -80q11 -9 31 -22.5t49 -30.5q32 -19 60.5 -37t51.5 -35zM158 -20q13 -58 39 -85q30 -30 86 -30q42 0 72 21q34 22 34 64q0 25 -18 46q-15 17 -56 46.5
t-110 71.5q-29 19 -50 32.5t-33 22.5q-42 33 -64 74q-18 35 -18 71q0 51 31 88q30 36 78 51q-63 60 -63 121q0 70 56 114q49 40 123 40q183 0 204 -169l-92 -10q-18 107 -105 107q-37 0 -66 -20q-34 -22 -34 -58q0 -24 18 -47q27 -32 149 -107q80 -49 104 -69
q67 -55 67 -128q0 -55 -35 -95q-21 -23 -76 -45q78 -58 78 -136q0 -48 -26 -84.5t-69 -55.5q-48 -20 -99 -20q-89 0 -144 43q-59 47 -69 133z" />
    <glyph glyph-name="dieresis" unicode="&#xa8;" horiz-adv-x="333" 
d="M212 720h92v-100h-92v100zM30 720h92v-100h-92v100z" />
    <glyph glyph-name="copyright" unicode="&#xa9;" horiz-adv-x="737" 
d="M548 282q-15 -63 -64 -99q-47 -35 -113 -35q-91 0 -144 60q-50 58 -50 150q0 135 94 184q45 24 104 24q132 0 166 -115l-58 -14q-30 75 -110 75q-64 0 -99 -47q-30 -42 -30 -108t28 -106q33 -45 95 -45q45 0 78 25.5t43 68.5zM370 667q-41 0 -80 -11t-74 -31t-63.5 -48
t-48.5 -63q-41 -76 -41 -155q0 -41 10.5 -80t30.5 -74t48.5 -63.5t64.5 -48.5q74 -41 153 -41q41 0 80.5 11t74 31t63.5 49t49 65q40 71 40 151q0 83 -42 156t-114 112q-73 40 -151 40zM370 728q97 0 185 -50q89 -50 134 -134q49 -88 49 -185t-50 -185q-50 -89 -134 -134
q-88 -48 -184 -48q-100 0 -185 49q-87 50 -135 135q-49 88 -49 183q0 99 51 187t137 135q89 47 181 47z" />
    <glyph glyph-name="ordfeminine" unicode="&#xaa;" horiz-adv-x="370" 
d="M260 539q-25 -7 -93 -18q-71 -11 -71 -50q0 -23 20 -37q19 -11 43 -11q33 0 60.5 17.5t36.5 48.5q4 9 4 50zM268 417q-61 -53 -125 -53q-53 0 -85 28q-35 29 -35 79q0 45 31 72q16 14 40 22q19 7 48 11l72 10q10 2 21.5 4t25.5 6q-1 14 -2 24t-3 15q-6 17 -26 28
q-18 8 -46 8q-72 0 -81 -61l-67 16q8 54 53 80q38 22 96 22q70 0 105 -23q41 -29 41 -95v-147q-1 -64 20 -90h-73q-8 18 -10 44z" />
    <glyph glyph-name="guillemotleft" unicode="&#xab;" 
d="M484 35h-74l-153 223l153 222h74l-129 -222zM292 35h-71l-156 223l156 222h72l-127 -222z" />
    <glyph glyph-name="logicalnot" unicode="&#xac;" horiz-adv-x="584" 
d="M445 207v214h-389v82h472v-296h-83z" />
    <glyph glyph-name="registered" unicode="&#xae;" horiz-adv-x="737" 
d="M350 379q96 0 96 60q0 38 -36 53q-17 7 -65 7h-73v-120h78zM208 552h137q56 0 83 -6q46 -11 68 -43q18 -27 18 -58q0 -48 -34 -79q-32 -30 -79 -33q20 -9 34 -21q24 -23 58 -79l49 -77h-79l-35 62q-40 72 -67 93q-17 13 -51 13h-38v-168h-64v396zM370 667q-41 0 -80 -11
t-74 -31t-63.5 -48t-48.5 -63q-41 -76 -41 -155q0 -41 10.5 -80t30.5 -74t48.5 -63.5t64.5 -48.5q74 -41 153 -41q41 0 80.5 11t74 31t63.5 49t49 65q40 71 40 151q0 83 -42 156t-114 112q-73 40 -151 40zM370 728q97 0 185 -50q89 -50 134 -134q49 -88 49 -185t-50 -185
q-50 -89 -134 -134q-88 -48 -184 -48q-100 0 -185 49q-87 50 -135 135q-49 88 -49 183q0 99 51 187t137 135q89 47 181 47z" />
    <glyph glyph-name="macron" unicode="&#xaf;" horiz-adv-x="552" 
d="M-14 828h581v-63h-581v63z" />
    <glyph glyph-name="degree" unicode="&#xb0;" horiz-adv-x="400" 
d="M116 593q0 -34 24 -58.5t58 -24.5t58 24.5t24 58.5t-24 58t-58 24t-58 -24t-24 -58zM63 593q0 56 39 95q40 40 96 40t95 -40q40 -39 40 -95q0 -57 -40 -97q-39 -39 -95 -39q-57 0 -96 39q-39 41 -39 97z" />
    <glyph glyph-name="plusminus" unicode="&#xb1;" horiz-adv-x="549" 
d="M38 0v82h473v-82h-473zM233 324h-195v81h195v195h83v-195h195v-81h-195v-197h-83v197z" />
    <glyph glyph-name="twosuperior" unicode="&#xb2;" horiz-adv-x="333" 
d="M12 358q8 64 124 149q69 50 84 65q18 20 18 41q0 54 -68 54q-32 0 -48 -12t-26 -44l-74 8q28 106 150 106q58 0 95 -21q47 -26 47 -79q0 -42 -28 -77q-22 -26 -100 -84q-42 -29 -58 -47h188v-59h-304v0z" />
    <glyph glyph-name="threesuperior" unicode="&#xb3;" horiz-adv-x="333" 
d="M87 461q11 -31 26 -40q21 -15 50 -15q30 0 52 17q24 18 24 48q0 54 -77 54q-5 0 -14 -1t-13 -1l11 54q76 -1 76 50q0 43 -58 43q-51 0 -70 -49l-70 11q21 52 52 72.5t88 20.5q134 0 134 -92q0 -59 -67 -78q84 -21 84 -93q0 -55 -48 -87q-41 -26 -100 -26q-128 0 -151 105
z" />
    <glyph glyph-name="acute" unicode="&#xb4;" horiz-adv-x="333" 
d="M173 720h116l-108 -137h-73z" />
    <glyph glyph-name="mu1" unicode="&#xb5;" horiz-adv-x="576" 
d="M497 0h-79v62q-26 -41 -50 -54q-34 -19 -79 -19q-40 0 -72 15q-23 12 -52 48v-250h-87v717h87v-220q0 -90 3 -114q11 -69 51 -97q29 -21 66 -21q38 0 69 21t44 57q13 32 13 152v222h86v-519z" />
    <glyph glyph-name="mu1" unicode="&#x3bc;" horiz-adv-x="576" 
d="M497 0h-79v62q-26 -41 -50 -54q-34 -19 -79 -19q-40 0 -72 15q-23 12 -52 48v-250h-87v717h87v-220q0 -90 3 -114q11 -69 51 -97q29 -21 66 -21q38 0 69 21t44 57q13 32 13 152v222h86v-519z" />
    <glyph glyph-name="paragraph" unicode="&#xb6;" horiz-adv-x="537" 
d="M198 312q-91 5 -142 56q-56 54 -56 142q0 102 66 156q62 50 165 50h310v-85h-71v-829h-83v829h-109v-829h-80v510z" />
    <glyph glyph-name="periodcentered" unicode="&#xb7;" horiz-adv-x="278" 
d="M90 402h100v-100h-100v100z" />
    <glyph glyph-name="periodcentered" unicode="&#x2219;" horiz-adv-x="278" 
d="M90 402h100v-100h-100v100z" />
    <glyph glyph-name="cedilla" unicode="&#xb8;" horiz-adv-x="333" 
d="M131 11h65l-16 -51q35 -5 57 -21q27 -20 27 -51q0 -47 -50 -73q-38 -20 -91 -20q-39 0 -71 6l6 57q16 -1 27 -1.5t19 -0.5q78 0 78 37q0 19 -26 27q-15 4 -51 6z" />
    <glyph glyph-name="onesuperior" unicode="&#xb9;" horiz-adv-x="333" 
d="M162 628q-48 -38 -110 -55v60q76 25 128 92h52v-367h-70v270z" />
    <glyph glyph-name="ordmasculine" unicode="&#xba;" horiz-adv-x="365" 
d="M182 663q-88 0 -88 -119q0 -118 88 -118t88 121q0 116 -88 116zM182 728q78 0 121 -54q39 -49 39 -130q0 -79 -40 -128q-43 -55 -119 -55q-77 0 -121 54q-40 47 -40 127q0 82 39 131q43 55 121 55z" />
    <glyph glyph-name="guillemotright" unicode="&#xbb;" 
d="M68 480h74l153 -222l-153 -223h-74l129 223zM259 480h72l156 -222l-156 -223h-72l127 223z" />
    <glyph glyph-name="onequarter" unicode="&#xbc;" horiz-adv-x="834" 
d="M698 241l-112 -128h112v128zM698 60h-187v60l198 232h60v-239h50v-53h-50v-74h-71v74zM162 628q-48 -38 -110 -55v60q76 25 128 92h52v-367h-70v270zM661 728h76l-537 -755h-77z" />
    <glyph glyph-name="onehalf" unicode="&#xbd;" horiz-adv-x="834" 
d="M512 -14q3 26 24 54q14 19 36 39.5t54 43.5q35 25 58.5 44t35.5 32q18 21 18 41q0 53 -68 53q-32 0 -48 -11.5t-26 -43.5l-74 8q28 106 150 106q58 0 95 -21q47 -26 47 -79q0 -42 -28 -77q-23 -29 -100 -84q-42 -31 -58 -47h188v-58h-304v0zM162 628q-48 -38 -110 -55v60
q76 25 128 92h52v-367h-70v270zM649 728h77l-538 -755h-77z" />
    <glyph glyph-name="threequarters" unicode="&#xbe;" horiz-adv-x="834" 
d="M698 241l-112 -128h112v128zM698 60h-187v60l197 232h61v-239h50v-53h-50v-74h-71v74zM87 461q11 -31 26 -40q21 -15 50 -15q30 0 52 17q24 18 24 48q0 55 -76 54q-10 0 -19 -1l-9 -1l11 54q76 -1 76 50q0 43 -58 43q-51 0 -70 -49l-70 11q21 52 52 72.5t88 20.5
q134 0 134 -92q0 -59 -67 -78q84 -21 84 -93q0 -55 -48 -87q-41 -26 -100 -26q-128 0 -151 105zM661 728h76l-537 -755h-77z" />
    <glyph glyph-name="questiondown" unicode="&#xbf;" horiz-adv-x="611" 
d="M352 342q1 -8 1 -14v-11q0 -53 -15 -91q-10 -27 -35 -57q-12 -15 -65 -62q-22 -19 -36 -34.5t-21.5 -28.5t-10.5 -25t-3 -26q0 -56 42 -93q41 -36 97 -36q120 0 143 143l90 -9q-13 -100 -72.5 -153t-159.5 -53q-95 0 -159 49q-71 56 -71 146q0 54 32 101q24 35 76 80
q17 16 28.5 26.5t16.5 16.5q24 29 31 55q5 22 7 76h84v0zM358 418h-100v101h100v-101z" />
    <glyph glyph-name="Agrave" unicode="&#xc0;" horiz-adv-x="667" 
d="M448 294l-75 198q-34 90 -51 149q-13 -70 -38 -137l-79 -210h243zM273 716h102l293 -716h-107l-84 217h-299l-79 -217h-99zM331 760l-113 137h118l66 -137h-71z" />
    <glyph glyph-name="Aacute" unicode="&#xc1;" horiz-adv-x="667" 
d="M448 294l-75 198q-34 90 -51 149q-13 -70 -38 -137l-79 -210h243zM273 716h102l293 -716h-107l-84 217h-299l-79 -217h-99zM329 897h116l-108 -137h-73z" />
    <glyph glyph-name="Acircumflex" unicode="&#xc2;" horiz-adv-x="667" 
d="M0 0l273 716h102l293 -716h-107l-84 217h-299l-79 -217h-99zM205 294h243l-75 198q-35 93 -51 149q-15 -75 -38 -137zM170 799v72h305v-72h-305z" />
    <glyph glyph-name="Atilde" unicode="&#xc3;" horiz-adv-x="667" 
d="M448 294l-75 198q-34 90 -51 149q-13 -70 -38 -137l-79 -210h243zM273 716h102l293 -716h-107l-84 217h-299l-79 -217h-99zM170 760q0 47 26 78q27 34 74 34q30 0 82 -27q30 -14 46 -14q30 0 36 42h63q-3 -111 -96 -111q-30 0 -81 27q-31 18 -48 18q-39 0 -37 -47h-65v0z
" />
    <glyph glyph-name="Adieresis" unicode="&#xc4;" horiz-adv-x="667" 
d="M448 294l-75 198q-34 90 -51 149q-13 -70 -38 -137l-79 -210h243zM273 716h102l293 -716h-107l-84 217h-299l-79 -217h-99zM367 860h92v-100h-92v100zM185 860h92v-100h-92v100z" />
    <glyph glyph-name="Aring" unicode="&#xc5;" horiz-adv-x="667" 
d="M448 294l-75 198q-34 90 -51 149q-13 -70 -38 -137l-79 -210h243zM273 716h102l293 -716h-107l-84 217h-299l-79 -217h-99zM272 781q0 -22 15 -38t37 -16q21 0 36.5 15.5t15.5 37.5t-15 37.5t-37 15.5t-37 -15.5t-15 -36.5zM235 781q0 18 7 34t19 28t28 19t34 7
q37 0 62.5 -26.5t25.5 -63.5t-25.5 -63t-62.5 -26q-38 0 -63 26.5t-25 64.5z" />
    <glyph glyph-name="AE" unicode="&#xc6;" horiz-adv-x="1000" 
d="M477 291v340h-71l-165 -340h236zM345 716h587v-85h-360v-220h335v-84h-335v-243h373v-84h-468v207h-276l-98 -207h-103z" />
    <glyph glyph-name="Ccedilla" unicode="&#xc7;" horiz-adv-x="722" 
d="M683 227q-29 -113 -104 -175q-78 -62 -193 -62q-220 0 -298 181q-38 91 -38 192q0 232 164 322q79 43 174 43q106 0 179.5 -53t102.5 -155l-93 -22q-48 149 -191 149q-77 0 -134 -36q-58 -37 -82 -110q-23 -67 -23 -137q0 -196 110 -261q55 -34 121 -34q169 0 210 182z
M328 11h65l-16 -51q35 -5 57 -21q27 -20 27 -51q0 -47 -50 -73q-38 -20 -91 -20q-39 0 -71 6l6 57q16 -1 27 -1.5t19 -0.5q78 0 78 37q0 19 -26 27q-15 4 -51 6z" />
    <glyph glyph-name="Egrave" unicode="&#xc8;" horiz-adv-x="667" 
d="M79 716h518v-85h-423v-219h396v-84h-396v-244h439v-84h-534v716zM344 760l-113 137h118l66 -137h-71z" />
    <glyph glyph-name="Eacute" unicode="&#xc9;" horiz-adv-x="667" 
d="M79 716h518v-85h-423v-219h396v-84h-396v-244h439v-84h-534v716zM339 897h116l-108 -137h-73z" />
    <glyph glyph-name="Ecircumflex" unicode="&#xca;" horiz-adv-x="667" 
d="M79 0v716h518v-85h-423v-219h396v-84h-396v-244h439v-84h-534zM180 799v72h305v-72h-305z" />
    <glyph glyph-name="Edieresis" unicode="&#xcb;" horiz-adv-x="667" 
d="M79 716h518v-85h-423v-219h396v-84h-396v-244h439v-84h-534v716zM390 860h92v-100h-92v100zM208 860h92v-100h-92v100z" />
    <glyph glyph-name="Igrave" unicode="&#xcc;" horiz-adv-x="278" 
d="M93 716h95v-716h-95v716zM141 760l-113 137h118l66 -137h-71z" />
    <glyph glyph-name="Iacute" unicode="&#xcd;" horiz-adv-x="278" 
d="M93 716h95v-716h-95v716zM135 897h116l-108 -137h-73z" />
    <glyph glyph-name="Icircumflex" unicode="&#xce;" horiz-adv-x="278" 
d="M93 0v716h95v-716h-95zM-10 799v72h303v-72h-303z" />
    <glyph glyph-name="Idieresis" unicode="&#xcf;" horiz-adv-x="278" 
d="M93 716h95v-716h-95v716zM187 860h92v-100h-92v100zM5 860h92v-100h-92v100z" />
    <glyph glyph-name="Eth" unicode="&#xd0;" horiz-adv-x="722" 
d="M325 84q125 0 175 50q71 73 71 229q0 147 -68 215q-34 34 -84 46q-16 4 -40.5 5.5t-56.5 1.5h-150v-241h197v-64h-197v-242h153zM77 326h-77v64h77v326h247q42 0 73.5 -2.5t53.5 -7.5q136 -31 190 -174q28 -72 28 -170q0 -88 -26 -166q-32 -93 -92 -137q-48 -36 -111 -51
q-37 -8 -105 -8h-258v326z" />
    <glyph glyph-name="Ntilde" unicode="&#xd1;" horiz-adv-x="722" 
d="M76 716h97l376 -562v562h91v-716h-97l-376 563v-563h-91v716zM210 760q0 47 26 78q27 34 74 34q30 0 82 -27q30 -14 46 -14q30 0 36 42h63q-3 -111 -96 -111q-30 0 -81 27q-31 18 -48 18q-39 0 -37 -47h-65v0z" />
    <glyph glyph-name="Ograve" unicode="&#xd2;" horiz-adv-x="778" 
d="M146 347q0 -118 62 -195q66 -83 182 -83q120 0 186 86q59 80 59 202q0 181 -115 254q-58 36 -128 36q-127 0 -190 -90q-56 -79 -56 -210zM48 349q0 166 87 269q93 111 256 111q98 0 177 -46q81 -48 123 -133t42 -193q0 -106 -40 -187q-43 -91 -129 -138q-79 -43 -173 -43
q-99 0 -178 46q-80 48 -124 135q-41 85 -41 179zM376 760l-113 137h118l66 -137h-71z" />
    <glyph glyph-name="Oacute" unicode="&#xd3;" horiz-adv-x="778" 
d="M146 347q0 -118 62 -195q66 -83 182 -83q120 0 186 86q59 80 59 202q0 181 -115 254q-58 36 -128 36q-127 0 -190 -90q-56 -79 -56 -210zM48 349q0 166 87 269q93 111 256 111q98 0 177 -46q81 -48 123 -133t42 -193q0 -106 -40 -187q-43 -91 -129 -138q-79 -43 -173 -43
q-99 0 -178 46q-80 48 -124 135q-41 85 -41 179zM395 897h116l-108 -137h-73z" />
    <glyph glyph-name="Ocircumflex" unicode="&#xd4;" horiz-adv-x="778" 
d="M48 349q0 167 87 270q93 110 256 110q77 0 138 -27q129 -57 180 -196q26 -66 24 -149q-1 -112 -44 -195t-124 -129q-76 -42 -174 -42t-178 44q-81 46 -124 134q-41 87 -41 180zM146 347q0 -131 69 -205q70 -73 175 -73q107 0 176 75q68 74 69 213q1 68 -16 120
q-18 53 -50 91q-67 79 -177 79q-100 0 -174 -69q-72 -67 -72 -231zM232 799v72h305v-72h-305z" />
    <glyph glyph-name="Otilde" unicode="&#xd5;" horiz-adv-x="778" 
d="M146 347q0 -118 62 -195q66 -83 182 -83q120 0 186 86q59 80 59 202q0 181 -115 254q-58 36 -128 36q-127 0 -190 -90q-56 -79 -56 -210zM48 349q0 166 87 269q93 111 256 111q98 0 177 -46q81 -48 123 -133t42 -193q0 -106 -40 -187q-43 -91 -129 -138q-79 -43 -173 -43
q-99 0 -178 46q-80 48 -124 135q-41 85 -41 179zM227 760q0 47 26 78q27 34 74 34q30 0 82 -27q30 -14 46 -14q30 0 36 42h63q-3 -111 -96 -111q-30 0 -81 27q-31 18 -48 18q-39 0 -37 -47h-65v0z" />
    <glyph glyph-name="Odieresis" unicode="&#xd6;" horiz-adv-x="778" 
d="M146 347q0 -118 62 -195q66 -83 182 -83q120 0 186 86q59 80 59 202q0 181 -115 254q-58 36 -128 36q-127 0 -190 -90q-56 -79 -56 -210zM48 349q0 166 87 269q93 111 256 111q98 0 177 -46q81 -48 123 -133t42 -193q0 -106 -40 -187q-43 -91 -129 -138q-79 -43 -173 -43
q-99 0 -178 46q-80 48 -124 135q-41 85 -41 179zM434 860h92v-100h-92v100zM252 860h92v-100h-92v100z" />
    <glyph glyph-name="Oslash" unicode="&#xd8;" horiz-adv-x="778" 
d="M229 128q36 -31 69 -43q41 -16 90 -16q119 0 185 86q60 78 60 200q0 102 -41 179zM552 584q-22 17 -40.5 28.5t-34.5 18.5q-36 16 -86 16q-124 0 -188 -85q-59 -79 -59 -204q0 -54 11 -101q8 -34 33 -80l364 407v0zM692 742l49 -41l-86 -97q41 -62 56 -109
q20 -63 20 -138q0 -106 -40 -187q-45 -91 -129 -138q-80 -43 -171 -43q-66 0 -122 18q-42 13 -98 56l-82 -91l-48 40l85 96q-22 35 -37.5 64t-23.5 54q-19 54 -19 130q0 105 40 188q44 94 128 140q80 44 176 44q118 0 220 -78z" />
    <glyph glyph-name="Ugrave" unicode="&#xd9;" horiz-adv-x="722" 
d="M642 716v-414q0 -99 -19 -155q-26 -78 -94 -119q-64 -39 -167 -39q-200 0 -256 134q-27 65 -27 179v414h94v-413q0 -75 11 -116q17 -61 66 -90q42 -24 104 -24q113 0 157 59q36 50 36 171v413h95zM346 760l-113 137h118l66 -137h-71z" />
    <glyph glyph-name="Uacute" unicode="&#xda;" horiz-adv-x="722" 
d="M642 716v-414q0 -99 -19 -155q-26 -78 -94 -119q-64 -39 -167 -39q-200 0 -256 134q-27 65 -27 179v414h94v-413q0 -75 11 -116q17 -61 66 -90q42 -24 104 -24q113 0 157 59q36 50 36 171v413h95zM364 897h116l-108 -137h-73z" />
    <glyph glyph-name="Ucircumflex" unicode="&#xdb;" horiz-adv-x="722" 
d="M547 716h95v-414q0 -27 -1.5 -51t-3.5 -45q-17 -123 -108 -178q-65 -37 -167 -37q-200 0 -256 131q-27 66 -27 180v414h94v-413q0 -93 17 -138q36 -92 164 -92q115 0 157 59q36 50 36 171v413zM217 799v72h305v-72h-305z" />
    <glyph glyph-name="Udieresis" unicode="&#xdc;" horiz-adv-x="722" 
d="M642 716v-414q0 -99 -19 -155q-26 -78 -94 -119q-64 -39 -167 -39q-200 0 -256 134q-27 65 -27 179v414h94v-413q0 -75 11 -116q17 -61 66 -90q42 -24 104 -24q113 0 157 59q36 50 36 171v413h95zM404 860h92v-100h-92v100zM222 860h92v-100h-92v100z" />
    <glyph glyph-name="Yacute" unicode="&#xdd;" horiz-adv-x="667" 
d="M279 303l-276 413h115l141 -216q18 -28 36 -58t37 -63q35 62 78 126l139 211h110l-285 -413v-303h-95v303zM336 897h116l-108 -137h-73z" />
    <glyph glyph-name="Thorn" unicode="&#xde;" horiz-adv-x="667" 
d="M357 230q169 0 169 130q0 43 -21 74q-23 35 -61 45q-24 7 -89 7h-183v-256h185zM77 716h95v-146h175q35 0 62.5 -1.5t47.5 -5.5q105 -18 145 -103q22 -43 22 -97q0 -217 -269 -217h-183v-146h-95v716z" />
    <glyph glyph-name="germandbls" unicode="&#xdf;" horiz-adv-x="611" 
d="M75 488q0 79 15 122q22 60 79 91q51 27 114 27q72 0 122 -34q59 -39 59 -106q0 -47 -40 -117q-34 -59 -34 -82q0 -33 70 -78q66 -43 88 -70q32 -38 32 -89q0 -72 -54 -119q-52 -44 -125 -44q-60 0 -106.5 31t-70.5 85l76 36q44 -81 100 -81q36 0 63 24.5t27 60.5
q0 28 -16 47q-10 12 -55 43q-57 38 -77 58q-42 41 -42 82q0 35 38 102q41 70 41 102q0 35 -32 58q-28 19 -66 19q-72 0 -99 -53q-19 -38 -19 -119v-484h-88v488z" />
    <glyph glyph-name="agrave" unicode="&#xe0;" 
d="M397 260q-48 -19 -144 -33q-43 -6 -61 -12q-34 -10 -50 -34q-12 -19 -12 -42q0 -40 33 -63q28 -19 71 -19q108 0 149 83q14 31 14 88v32v0zM404 64q-88 -75 -191 -75q-76 0 -123 35q-54 39 -54 113q0 77 63 120q14 10 30 17t33 12q13 3 32.5 6l45.5 7q108 14 157 30v23
q0 54 -24 76q-34 30 -101 30q-60 0 -89 -21q-31 -21 -46 -78l-86 12q22 108 116 141q51 18 118 18q124 0 169 -54q20 -25 27 -60q5 -23 5 -82v-117v-111q4 -62 28 -106h-92q-14 27 -18 64zM278 583l-113 137h118l66 -137h-71z" />
    <glyph glyph-name="aacute" unicode="&#xe1;" 
d="M397 260q-48 -19 -144 -33q-43 -6 -61 -12q-34 -10 -50 -34q-12 -19 -12 -42q0 -40 33 -63q28 -19 71 -19q108 0 149 83q14 31 14 88v32v0zM404 64q-88 -75 -191 -75q-76 0 -123 35q-54 39 -54 113q0 77 63 120q14 10 30 17t33 12q13 3 32.5 6l45.5 7q108 14 157 30v23
q0 54 -24 76q-34 30 -101 30q-60 0 -89 -21q-31 -21 -46 -78l-86 12q22 108 116 141q51 18 118 18q124 0 169 -54q20 -25 27 -60q5 -23 5 -82v-117v-111q4 -62 28 -106h-92q-14 27 -18 64zM291 720h116l-108 -137h-73z" />
    <glyph glyph-name="acircumflex" unicode="&#xe2;" 
d="M404 64q-89 -73 -191 -73q-78 0 -124 33q-53 39 -53 113q0 56 38 97q34 37 88 52q25 5 44.5 8t33.5 5q111 14 157 30v23q0 59 -33 84q-29 22 -92 22q-60 0 -89 -20q-33 -23 -46 -79l-86 12q33 159 234 159q52 0 86 -9q68 -17 93 -59q22 -37 22 -128v-117q0 -63 1.5 -101
t3.5 -54q6 -29 23 -62h-92q-14 27 -18 64zM397 260q-48 -19 -144 -33q-14 -2 -25 -4t-20 -4q-34 -7 -52 -22q-26 -23 -26 -58q0 -40 33 -63q26 -19 71 -19q108 0 149 83q14 30 14 88v32zM123 618v72h305v-72h-305z" />
    <glyph glyph-name="atilde" unicode="&#xe3;" 
d="M397 260q-48 -19 -144 -33q-43 -6 -61 -12q-34 -10 -50 -34q-12 -19 -12 -42q0 -40 33 -63q28 -19 71 -19q108 0 149 83q14 31 14 88v32v0zM404 64q-88 -75 -191 -75q-76 0 -123 35q-54 39 -54 113q0 77 63 120q14 10 30 17t33 12q13 3 32.5 6l45.5 7q108 14 157 30v23
q0 54 -24 76q-34 30 -101 30q-60 0 -89 -21q-31 -21 -46 -78l-86 12q22 108 116 141q51 18 118 18q124 0 169 -54q20 -25 27 -60q5 -23 5 -82v-117v-111q4 -62 28 -106h-92q-14 27 -18 64zM111 595q0 47 26 78q27 34 74 34q30 0 82 -27q30 -14 46 -14q30 0 36 42h63
q-3 -111 -96 -111q-30 0 -81 27q-31 18 -48 18q-39 0 -37 -47h-65v0z" />
    <glyph glyph-name="adieresis" unicode="&#xe4;" 
d="M397 260q-48 -19 -144 -33q-43 -6 -61 -12q-34 -10 -50 -34q-12 -19 -12 -42q0 -40 33 -63q28 -19 71 -19q108 0 149 83q14 31 14 88v32v0zM404 64q-88 -75 -191 -75q-76 0 -123 35q-54 39 -54 113q0 77 63 120q14 10 30 17t33 12q13 3 32.5 6l45.5 7q108 14 157 30v23
q0 54 -24 76q-34 30 -101 30q-60 0 -89 -21q-31 -21 -46 -78l-86 12q22 108 116 141q51 18 118 18q124 0 169 -54q20 -25 27 -60q5 -23 5 -82v-117v-111q4 -62 28 -106h-92q-14 27 -18 64zM320 720h92v-100h-92v100zM138 720h92v-100h-92v100z" />
    <glyph glyph-name="aring" unicode="&#xe5;" 
d="M397 260q-48 -19 -144 -33q-43 -6 -61 -12q-34 -10 -50 -34q-12 -19 -12 -42q0 -40 33 -63q28 -19 71 -19q108 0 149 83q14 31 14 88v32v0zM404 64q-88 -75 -191 -75q-76 0 -123 35q-54 39 -54 113q0 77 63 120q14 10 30 17t33 12q13 3 32.5 6l45.5 7q108 14 157 30v23
q0 54 -24 76q-34 30 -101 30q-60 0 -89 -21q-31 -21 -46 -78l-86 12q22 108 116 141q51 18 118 18q124 0 169 -54q20 -25 27 -60q5 -23 5 -82v-117v-111q4 -62 28 -106h-92q-14 27 -18 64zM224 653q0 -22 15 -38t37 -16q21 0 36.5 15.5t15.5 37.5t-15 37.5t-37 15.5
t-37 -15.5t-15 -36.5zM187 653q0 18 7 34t19 28t28 19t34 7q37 0 62.5 -26.5t25.5 -63.5t-25.5 -63t-62.5 -26q-38 0 -63 26.5t-25 64.5z" />
    <glyph glyph-name="ae" unicode="&#xe6;" horiz-adv-x="889" 
d="M387 260q-41 -17 -157 -35q-55 -9 -75 -25q-29 -23 -29 -60q0 -40 32 -63q26 -19 70 -19q50 0 92 24q47 27 60 73q7 22 7 105zM758 309q-14 149 -140 149q-66 0 -104 -42q-37 -41 -41 -107h285zM847 159q-51 -170 -229 -170q-119 0 -193 96q-97 -96 -215 -96
q-72 0 -122 36q-55 40 -55 112q0 45 25 80.5t67 53.5q21 10 55.5 17.5t82.5 14.5q72 9 123 24v20q0 62 -26 86.5t-89 24.5q-87 0 -115 -40q-14 -21 -23 -60l-86 10q25 108 113 143q47 19 112 19q82 0 131 -24q29 -14 49 -46q64 70 166 70q153 0 207 -139q24 -63 24 -124v-13
q0 -7 -1 -17h-375q2 -59 12 -89q15 -41 58 -66q36 -21 79 -21q105 0 133 109l92 -11v0z" />
    <glyph glyph-name="ccedilla" unicode="&#xe7;" horiz-adv-x="500" 
d="M491 179q-13 -88 -71 -138q-58 -51 -145 -51q-116 0 -179 76q-57 72 -57 191q0 180 113 242q55 31 123 31q82 0 137 -41q55 -43 70 -123l-85 -13q-24 105 -118 105q-150 0 -150 -198q0 -199 145 -199q112 0 130 129zM226 21h65l-16 -51q35 -5 57 -21q27 -20 27 -51
q0 -47 -50 -73q-38 -20 -91 -20q-39 0 -71 6l6 57q16 -1 27 -1.5t19 -0.5q78 0 78 37q0 19 -26 27q-15 4 -51 6z" />
    <glyph glyph-name="egrave" unicode="&#xe8;" 
d="M422 309q-6 67 -33 98q-42 51 -109 51q-65 0 -105 -43q-39 -42 -43 -106h290zM512 156q-47 -167 -228 -167q-119 0 -185 74q-62 71 -62 192q0 120 60 195q65 80 182 80q114 0 178 -79q58 -73 58 -191v-10q0 -5 -1 -13h-387q5 -76 42 -123q42 -53 115 -53q100 0 137 106z
M264 583l-113 137h118l66 -137h-71z" />
    <glyph glyph-name="eacute" unicode="&#xe9;" 
d="M422 309q-6 67 -33 98q-42 51 -109 51q-65 0 -105 -43q-39 -42 -43 -106h290zM512 156q-47 -167 -228 -167q-119 0 -185 74q-62 71 -62 192q0 120 60 195q65 80 182 80q114 0 178 -79q58 -73 58 -191v-10q0 -5 -1 -13h-387q5 -76 42 -123q42 -53 115 -53q100 0 137 106z
M292 720h116l-108 -137h-73z" />
    <glyph glyph-name="ecircumflex" unicode="&#xea;" 
d="M421 167l91 -11q-45 -166 -228 -166q-112 0 -180 69q-67 68 -67 196q0 120 60 195q65 80 182 80q115 0 178 -80q58 -73 58 -190v-10v-6q0 -3 -1 -7h-387q5 -76 42 -123q42 -53 115 -53q100 0 137 106zM132 309h290q-6 67 -33 98q-42 51 -109 51q-65 0 -105 -43
q-39 -42 -43 -106zM127 618v72h305v-72h-305z" />
    <glyph glyph-name="edieresis" unicode="&#xeb;" 
d="M422 309q-6 67 -33 98q-42 51 -109 51q-65 0 -105 -43q-39 -42 -43 -106h290zM512 156q-47 -167 -228 -167q-119 0 -185 74q-62 71 -62 192q0 120 60 195q65 80 182 80q114 0 178 -79q58 -73 58 -191v-10q0 -5 -1 -13h-387q5 -76 42 -123q42 -53 115 -53q100 0 137 106z
M321 720h92v-100h-92v100zM139 720h92v-100h-92v100z" />
    <glyph glyph-name="igrave" unicode="&#xec;" horiz-adv-x="278" 
d="M97 519h88v-519h-88v519zM133 583l-113 137h118l66 -137h-71z" />
    <glyph glyph-name="iacute" unicode="&#xed;" horiz-adv-x="278" 
d="M97 519h88v-519h-88v519zM159 720h116l-108 -137h-73z" />
    <glyph glyph-name="icircumflex" unicode="&#xee;" horiz-adv-x="278" 
d="M97 0v519h88v-519h-88zM1 618v72h274v-72h-274z" />
    <glyph glyph-name="idieresis" unicode="&#xef;" horiz-adv-x="278" 
d="M97 519h88v-519h-88v519zM190 720h92v-100h-92v100zM8 720h92v-100h-92v100z" />
    <glyph glyph-name="eth" unicode="&#xf0;" 
d="M425 258q0 81 -36 133q-40 60 -117 60q-78 0 -116 -65q-31 -52 -31 -136q0 -81 34 -131q41 -59 116 -59q76 0 116 64q34 53 34 134zM256 716q18 -14 33 -26.5t28 -23.5l105 50l22 -50l-84 -41q156 -178 156 -371q0 -114 -62 -188q-65 -77 -179 -77q-124 0 -194 94
q-45 62 -45 169q0 112 53 185q58 82 167 82q49 0 104 -29q-29 58 -69 104l-135 -62l-21 50l116 53q-45 42 -101 81h106z" />
    <glyph glyph-name="ntilde" unicode="&#xf1;" 
d="M66 519h79v-74q57 85 165 85q102 0 145 -61q19 -27 27 -65q2 -12 3.5 -33t1.5 -52v-319h-88v315q0 95 -46 123q-25 16 -61 16q-138 0 -138 -171v-283h-88v519zM128 595q0 47 26 78q27 34 74 34q30 0 82 -27q30 -14 46 -14q30 0 36 42h63q-3 -111 -96 -111q-30 0 -81 27
q-31 18 -48 18q-39 0 -37 -47h-65v0z" />
    <glyph glyph-name="ograve" unicode="&#xf2;" 
d="M124 259q0 -83 33 -136q41 -62 119 -62q80 0 120 64q33 53 33 137q0 81 -35 134q-41 62 -118 62q-78 0 -119 -63q-33 -52 -33 -136zM33 259q0 143 80 214q68 57 163 57q115 0 181 -75q62 -73 62 -188q0 -182 -117 -247q-58 -31 -126 -31q-118 0 -183 77q-60 72 -60 193z
M264 583l-113 137h118l66 -137h-71z" />
    <glyph glyph-name="oacute" unicode="&#xf3;" 
d="M124 259q0 -83 33 -136q41 -62 119 -62q80 0 120 64q33 53 33 137q0 81 -35 134q-41 62 -118 62q-78 0 -119 -63q-33 -52 -33 -136zM33 259q0 143 80 214q68 57 163 57q115 0 181 -75q62 -73 62 -188q0 -182 -117 -247q-58 -31 -126 -31q-118 0 -183 77q-60 72 -60 193z
M292 720h116l-108 -137h-73z" />
    <glyph glyph-name="ocircumflex" unicode="&#xf4;" 
d="M33 259q0 145 80 214q65 57 163 57q114 0 180 -75q63 -72 63 -188q0 -100 -29.5 -158t-89.5 -89q-55 -30 -124 -30q-54 0 -99 17.5t-77 51t-49.5 84t-17.5 116.5zM124 259q0 -83 34 -135q41 -63 118 -63q80 0 120 64q33 53 33 137q0 93 -43 146q-41 50 -110 50
q-78 0 -119 -63q-33 -52 -33 -136zM120 618v72h305v-72h-305z" />
    <glyph glyph-name="otilde" unicode="&#xf5;" 
d="M124 259q0 -83 33 -136q41 -62 119 -62q80 0 120 64q33 53 33 137q0 81 -35 134q-41 62 -118 62q-78 0 -119 -63q-33 -52 -33 -136zM33 259q0 143 80 214q68 57 163 57q115 0 181 -75q62 -73 62 -188q0 -182 -117 -247q-58 -31 -126 -31q-118 0 -183 77q-60 72 -60 193z
M112 595q0 47 26 78q27 34 74 34q30 0 82 -27q30 -14 46 -14q30 0 36 42h63q-3 -111 -96 -111q-30 0 -81 27q-31 18 -48 18q-39 0 -37 -47h-65v0z" />
    <glyph glyph-name="odieresis" unicode="&#xf6;" 
d="M124 259q0 -83 33 -136q41 -62 119 -62q80 0 120 64q33 53 33 137q0 81 -35 134q-41 62 -118 62q-78 0 -119 -63q-33 -52 -33 -136zM33 259q0 143 80 214q68 57 163 57q115 0 181 -75q62 -73 62 -188q0 -182 -117 -247q-58 -31 -126 -31q-118 0 -183 77q-60 72 -60 193z
M321 720h92v-100h-92v100zM139 720h92v-100h-92v100z" />
    <glyph glyph-name="divide" unicode="&#xf7;" horiz-adv-x="549" 
d="M224 256h100v-100h-100v100zM38 312v82h473v-82h-473zM224 550h100v-100h-100v100z" />
    <glyph glyph-name="oslash" unicode="&#xf8;" horiz-adv-x="611" 
d="M219 91q38 -30 86 -30q80 0 121 62q35 53 35 137q0 18 -1.5 34.5t-3.5 30.5q-4 21 -18 51zM402 423q-46 35 -93 35q-78 0 -119 -63q-34 -53 -34 -136q0 -73 25 -122l221 286v0zM500 550l46 -34l-52 -67q32 -44 42 -76q15 -48 15 -114q0 -147 -82 -216q-67 -54 -161 -54
q-77 0 -138 38l-51 -65l-46 35l53 68q-29 34 -41 66q-20 55 -20 121q0 124 58 197q65 81 183 81q72 0 145 -42z" />
    <glyph glyph-name="ugrave" unicode="&#xf9;" 
d="M406 76q-61 -87 -165 -87q-40 0 -79 14q-44 17 -65 47q-21 29 -28 65q-2 14 -3.5 34t-1.5 48v322h88v-288q0 -68 5 -93q17 -74 102 -74q39 0 73 19q36 21 50 56t14 102v278h88v-519h-78v76zM284 583l-113 137h118l66 -137h-71z" />
    <glyph glyph-name="uacute" unicode="&#xfa;" 
d="M406 76q-61 -87 -165 -87q-40 0 -79 14q-44 17 -65 47q-21 29 -28 65q-2 14 -3.5 34t-1.5 48v322h88v-288q0 -68 5 -93q17 -74 102 -74q39 0 73 19q36 21 50 56t14 102v278h88v-519h-78v76zM286 720h116l-108 -137h-73z" />
    <glyph glyph-name="ucircumflex" unicode="&#xfb;" 
d="M406 0v76q-62 -86 -165 -86q-47 0 -85 16q-72 32 -87 109q-2 13 -3.5 33t-1.5 49v322h88v-288q0 -68 5 -93q18 -74 102 -74q39 0 74 20q40 23 53 68q10 30 10 89v278h88v-519h-78zM122 618v72h305v-72h-305z" />
    <glyph glyph-name="udieresis" unicode="&#xfc;" 
d="M406 76q-61 -87 -165 -87q-40 0 -79 14q-44 17 -65 47q-21 29 -28 65q-2 14 -3.5 34t-1.5 48v322h88v-288q0 -68 5 -93q17 -74 102 -74q39 0 73 19q36 21 50 56t14 102v278h88v-519h-78v76zM319 720h92v-100h-92v100zM137 720h92v-100h-92v100z" />
    <glyph glyph-name="thorn" unicode="&#xfe;" 
d="M146 256q0 -78 29 -131q36 -64 109 -64q75 0 112 67q30 56 30 136q0 77 -30 131q-36 66 -108 66t-111 -70q-31 -56 -31 -135zM66 716h88v-252q17 19 32.5 31t29.5 19q35 16 80 16q140 0 194 -130q26 -64 26 -137q0 -170 -111 -241q-55 -33 -114 -33q-41 0 -76 15
q-13 7 -28.5 19t-32.5 31v-252h-88v914z" />
    <glyph glyph-name="ydieresis" unicode="&#xff;" horiz-adv-x="500" 
d="M52 -116q30 -8 51 -8q53 0 75 37q9 13 27 66q1 2 2.5 6t3.5 10l2 5l-197 519h95l108 -301q11 -31 20 -61t17 -59q8 31 17 60.5t19 57.5l111 303h88l-197 -527q-16 -43 -28.5 -72t-20.5 -45q-46 -84 -126 -84q-27 0 -57 10zM301 720h92v-100h-92v100zM119 720h92v-100h-92
v100z" />
    <glyph glyph-name="hyphen" unicode="&#x2010;" horiz-adv-x="333" 
d="M32 303h270v-88h-270v88z" />
    <glyph glyph-name="notequal" unicode="&#x2260;" horiz-adv-x="549" 
d="M147 -13h-66l95 217h-138v82h174l59 135h-233v82h269l96 217h65l-95 -217h138v-82h-174l-59 -135h233v-82h-269z" />
    <glyph glyph-name="infinity" unicode="&#x221e;" horiz-adv-x="713" 
d="M303 350q-61 76 -108 76q-31 0 -49 -22q-17 -22 -17 -53q0 -32 18 -53q20 -23 49 -23q50 0 107 75zM370 350q42 -64 78 -90q22 -16 50 -16q43 0 66 32q21 29 21 72q0 46 -21 74q-24 33 -68 33q-23 0 -45 -14q-29 -20 -81 -91zM336 396q50 63 81 85q40 29 82 29
q66 0 105 -46q36 -43 36 -111q0 -103 -69 -144q-35 -20 -72 -20q-45 0 -82 28q-27 20 -81 86q-66 -84 -141 -84q-53 0 -87 40q-33 38 -33 91t34 91q35 39 86 39q75 0 141 -84z" />
    <glyph glyph-name="lessequal" unicode="&#x2264;" horiz-adv-x="549" 
d="M38 52v81h473v-81h-473zM38 454l474 200v-88l-376 -153l376 -156v-88l-474 203v82z" />
    <glyph glyph-name="greaterequal" unicode="&#x2265;" horiz-adv-x="549" 
d="M38 52v81h473v-81h-473zM38 169v88l375 156l-375 153v88l474 -200v-82z" />
    <glyph glyph-name="partialdiff" unicode="&#x2202;" horiz-adv-x="494" 
d="M415 389q-102 -6 -151 -24q-74 -27 -115 -95q-36 -61 -36 -122q0 -36 23 -65q24 -28 60 -28q38 0 78 27q119 77 141 307zM140 585q65 143 176 143q75 0 112 -63q45 -75 45 -213q0 -121 -33 -225q-40 -127 -123 -187q-72 -51 -141 -51q-72 0 -113 48q-38 47 -38 120
q0 111 75 189q96 100 317 105q-1 34 -2.5 59t-4.5 42q-11 64 -38 91q-23 23 -55 23q-70 0 -111 -110z" />
    <glyph glyph-name="summation" unicode="&#x2211;" horiz-adv-x="713" 
d="M672 728v-80h-483l297 -378l-317 -401h508v-78h-617v91l302 384l-294 377v85h604z" />
    <glyph glyph-name="product" unicode="&#x220f;" horiz-adv-x="823" 
d="M744 728v-937h-94v852h-477v-852h-94v937h665z" />
    <glyph glyph-name="integral" unicode="&#x222b;" horiz-adv-x="274" 
d="M106 722q3 71 25 124q25 64 81 64q23 0 42 -15.5t19 -37.5q0 -21 -12 -35.5t-32 -14.5q-18 0 -38 17q-10 10 -19 10q-20 0 -20 -31q0 -11 1.5 -28.5t3.5 -42.5q18 -202 18 -325q0 -11 -2 -82t-6 -205q-5 -146 -44 -194q-26 -32 -65 -32q-26 0 -42 16.5t-16 42.5
q0 47 44 47q18 0 34 -15q17 -15 24 -15q19 0 19 30q0 10 -1.5 24t-3.5 33q-10 84 -14.5 163.5t-4.5 157.5v42t1 43z" />
    <glyph glyph-name="radical" unicode="&#x221a;" horiz-adv-x="549" 
d="M550 913l-152 -950l-242 497l-97 -44l-17 31l147 74l198 -402l127 794h36z" />
    <glyph glyph-name="approxequal" unicode="&#x2248;" horiz-adv-x="549" 
d="M25 284q52 58 136 58q53 0 153 -42q55 -23 84 -23q65 0 126 67v-104q-58 -55 -135 -55q-51 0 -140 39q-60 26 -97 26q-58 0 -127 -66v100zM25 460q53 59 136 59q56 0 153 -42q54 -23 84 -23q65 0 126 67v-104q-59 -56 -135 -56q-54 0 -140 40q-60 26 -97 26
q-59 0 -127 -67v100z" />
    <glyph glyph-name="approxequal" unicode="&#x22f2;" horiz-adv-x="549" 
d="M25 284q52 58 136 58q53 0 153 -42q55 -23 84 -23q65 0 126 67v-104q-58 -55 -135 -55q-51 0 -140 39q-60 26 -97 26q-58 0 -127 -66v100zM25 460q53 59 136 59q56 0 153 -42q54 -23 84 -23q65 0 126 67v-104q-59 -56 -135 -56q-54 0 -140 40q-60 26 -97 26
q-59 0 -127 -67v100z" />
    <glyph glyph-name="Delta" unicode="&#x394;" horiz-adv-x="612" 
d="M290 512l-215 -472h410zM14 0l307 677l279 -677h-586z" />
    <glyph glyph-name="Delta" unicode="&#x2206;" horiz-adv-x="612" 
d="M290 512l-215 -472h410zM14 0l307 677l279 -677h-586z" />
    <glyph glyph-name="lozenge" unicode="&#x25ca;" horiz-adv-x="494" 
d="M76 346l166 -300l175 300l-175 301zM472 346l-204 -346h-54l-191 346l191 348h54z" />
    <glyph glyph-name="fraction" unicode="&#x2044;" horiz-adv-x="167" 
d="M315 728h77l-537 -755h-76z" />
    <glyph glyph-name="fi" unicode="&#xf001;" horiz-adv-x="500" 
d="M344 519h88v-519h-88v519zM344 716h88v-101h-88v101zM89 451h-78v68h78v50q0 159 139 159q47 0 89 -11l-14 -74q-13 2 -24.5 3t-22.5 1q-49 0 -66 -23q-13 -19 -13 -72v-33h101v-68h-101v-451h-88v451z" />
    <glyph glyph-name="fl" unicode="&#xf002;" horiz-adv-x="500" 
d="M343 716h88v-716h-88v716zM89 451h-78v68h78v50q0 159 139 159q47 0 89 -11l-14 -74q-13 2 -24.5 3t-22.5 1q-49 0 -66 -23q-13 -19 -13 -72v-33h101v-68h-101v-451h-88v451z" />
    <glyph glyph-name="dotlessi" unicode="&#x131;" horiz-adv-x="278" 
d="M97 519h88v-519h-88v519z" />
    <glyph glyph-name="breve" unicode="&#x2d8;" horiz-adv-x="333" 
d="M311 715q-15 -127 -144 -127t-145 127h61q14 -66 81 -66q74 0 87 66h60z" />
    <glyph glyph-name="dotaccent" unicode="&#x2d9;" horiz-adv-x="333" 
d="M112 692h109v-109h-109v109z" />
    <glyph glyph-name="ring" unicode="&#x2da;" horiz-adv-x="333" 
d="M116 653q0 -22 15 -38t37 -16q21 0 36.5 15.5t15.5 37.5t-15 37.5t-37 15.5t-37 -15.5t-15 -36.5zM79 653q0 18 7 34t19 28t28 19t34 7q37 0 62.5 -26.5t25.5 -63.5t-25.5 -63t-62.5 -26q-38 0 -63 26.5t-25 64.5z" />
    <glyph glyph-name="hungarumlaut" unicode="&#x2dd;" horiz-adv-x="333" 
d="M260 720h113l-102 -137h-73zM87 720h115l-103 -137h-71z" />
    <glyph glyph-name="ogonek" unicode="&#x2db;" horiz-adv-x="333" 
d="M170 12q-19 -42 -19 -79q0 -33 19 -54t51 -21q38 0 82 23v-58q-57 -30 -107 -30q-49 0 -78 29.5t-29 78.5q0 40 20 111h61z" />
    <glyph glyph-name="caron" unicode="&#x2c7;" horiz-adv-x="333" 
d="M229 720h100l-110 -137h-94l-105 137h100l55 -83z" />
    <glyph glyph-name="Ohm" unicode="&#x3a9;" horiz-adv-x="768" 
d="M242 78q-55 34 -80 64q-89 98 -89 250q0 93 36 171q41 85 116 128q73 43 170 43q164 0 251 -124q64 -89 64 -219q0 -150 -95 -254q-14 -14 -32 -29t-41 -30l178 3v-81h-281v86q38 19 61 39q70 58 97 158q12 47 12 96q0 69 -23 132q-26 72 -75 107.5t-118 35.5
q-94 0 -145 -58q-71 -83 -71 -215q0 -98 39 -173q43 -82 128 -120v-88h-282v82l180 -4v0z" />
    <glyph glyph-name="Ohm" unicode="&#x2126;" horiz-adv-x="768" 
d="M242 78q-55 34 -80 64q-89 98 -89 250q0 93 36 171q41 85 116 128q73 43 170 43q164 0 251 -124q64 -89 64 -219q0 -150 -95 -254q-14 -14 -32 -29t-41 -30l178 3v-81h-281v86q38 19 61 39q70 58 97 158q12 47 12 96q0 69 -23 132q-26 72 -75 107.5t-118 35.5
q-94 0 -145 -58q-71 -83 -71 -215q0 -98 39 -173q43 -82 128 -120v-88h-282v82l180 -4v0z" />
    <glyph glyph-name="FL282" unicode="&#xe004;" 
d="M397 260q-48 -19 -144 -33q-43 -6 -61 -12q-34 -10 -50 -34q-12 -19 -12 -42q0 -40 33 -63q28 -19 71 -19q108 0 149 83q14 31 14 88v32v0zM404 64q-88 -75 -191 -75q-76 0 -123 35q-54 39 -54 113q0 77 63 120q14 10 30 17t33 12q13 3 32.5 6l45.5 7q108 14 157 30v23
q0 54 -24 76q-34 30 -101 30q-60 0 -89 -21q-31 -21 -46 -78l-86 12q22 108 116 141q51 18 118 18q124 0 169 -54q20 -25 27 -60q5 -23 5 -82v-117v-111q4 -62 28 -106h-92q-14 27 -18 64zM221 583h-101l106 137h93l110 -137h-99l-54 83z" />
    <glyph glyph-name="FL283" unicode="&#xe005;" 
d="M422 309q-6 67 -33 98q-42 51 -109 51q-65 0 -105 -43q-39 -42 -43 -106h290zM512 156q-47 -167 -228 -167q-119 0 -185 74q-62 71 -62 192q0 120 60 195q65 80 182 80q114 0 178 -79q58 -73 58 -191v-10q0 -5 -1 -13h-387q5 -76 42 -123q42 -53 115 -53q100 0 137 106z
M222 583h-101l106 137h93l110 -137h-99l-54 83z" />
    <glyph glyph-name="FL284" unicode="&#xe006;" horiz-adv-x="278" 
d="M97 519h88v-519h-88v519zM94 583h-101l106 137h93l110 -137h-99l-54 83z" />
    <glyph glyph-name="FL285" unicode="&#xe007;" 
d="M124 259q0 -83 33 -136q41 -62 119 -62q80 0 120 64q33 53 33 137q0 81 -35 134q-41 62 -118 62q-78 0 -119 -63q-33 -52 -33 -136zM33 259q0 143 80 214q68 57 163 57q115 0 181 -75q62 -73 62 -188q0 -182 -117 -247q-58 -31 -126 -31q-118 0 -183 77q-60 72 -60 193z
M222 583h-101l106 137h93l110 -137h-99l-54 83z" />
    <glyph glyph-name="FL286" unicode="&#xe008;" 
d="M406 76q-61 -87 -165 -87q-40 0 -79 14q-44 17 -65 47q-21 29 -28 65q-2 14 -3.5 34t-1.5 48v322h88v-288q0 -68 5 -93q17 -74 102 -74q39 0 73 19q36 21 50 56t14 102v278h88v-519h-78v76zM220 583h-101l106 137h93l110 -137h-99l-54 83z" />
    <glyph glyph-name="pi1" unicode="&#xe003;" horiz-adv-x="549" 
d="M549 519v-77h-79v-442h-93v442h-208v-442h-91v442h-78v77h549z" />
    <glyph glyph-name="FL287" unicode="&#xe009;" horiz-adv-x="667" 
d="M448 294l-75 198q-34 90 -51 149q-13 -70 -38 -137l-79 -210h243zM273 716h102l293 -716h-107l-84 217h-299l-79 -217h-99zM269 760h-101l106 137h93l110 -137h-99l-54 83z" />
    <glyph glyph-name="FL288" unicode="&#xe00a;" horiz-adv-x="667" 
d="M79 716h518v-85h-423v-219h396v-84h-396v-244h439v-84h-534v716zM290 760h-101l106 137h93l110 -137h-99l-54 83z" />
    <glyph glyph-name="FL291" unicode="&#xe00d;" horiz-adv-x="278" 
d="M93 716h95v-716h-95v716zM88 760h-101l106 137h93l110 -137h-99l-54 83z" />
    <glyph glyph-name="FL290" unicode="&#xe00c;" horiz-adv-x="778" 
d="M146 347q0 -118 62 -195q66 -83 182 -83q120 0 186 86q59 80 59 202q0 181 -115 254q-58 36 -128 36q-127 0 -190 -90q-56 -79 -56 -210zM48 349q0 166 87 269q93 111 256 111q98 0 177 -46q81 -48 123 -133t42 -193q0 -106 -40 -187q-43 -91 -129 -138q-79 -43 -173 -43
q-99 0 -178 46q-80 48 -124 135q-41 85 -41 179zM335 760h-101l106 137h93l110 -137h-99l-54 83z" />
    <glyph glyph-name="FL289" unicode="&#xe00b;" horiz-adv-x="722" 
d="M642 716v-414q0 -99 -19 -155q-26 -78 -94 -119q-64 -39 -167 -39q-200 0 -256 134q-27 65 -27 179v414h94v-413q0 -75 11 -116q17 -61 66 -90q42 -24 104 -24q113 0 157 59q36 50 36 171v413h95zM304 760h-101l106 137h93l110 -137h-99l-54 83z" />
    <glyph glyph-name="ch272" unicode="&#x2c9;" horiz-adv-x="333" 
d="M14 671h305v-72h-305v72z" />
    <glyph glyph-name="FL283" unicode="&#xe00e;" horiz-adv-x="500" 
 />
    <glyph glyph-name=".null" unicode="&#xe001;" horiz-adv-x="0" 
 />
    </font>
</defs>
</svg>
